砵兰街大少[国粤双语.中文字幕].迅雷下载.The Prince of Portland Street.1993.1080p

版主小s 12天前 252

◎译 名 砵兰街大少 / The Prince of Portland Street / 花街大少

◎片 名 砵蘭街大少

◎年 代 1993

◎产 地 中国香港

◎类 别 犯罪

◎语 言 粤语

◎上映日期 1993-10-07(中国香港)

◎IMDb评分 5.2/10 from 13 users

◎IMDb链接 https://www.imdb.com/title/tt0106444

◎豆瓣评分 6.2/10 from 562 users

◎豆瓣链接 https://movie.douban.com/subject/2146107/

◎片 长 92分钟

◎导 演 张乾文 Kin-man Cheung

◎编 剧 叶广荫 Kwong-Yam Yip

◎主 演 张卫健 Dicky Cheung

任达华 Simon Yam

袁咏仪 Anita Yuen

李丽蕊 Sara Lee

黄光亮 Kwong Leung Wong

李丽丽 Lily Li

黄静宜 Ching-Yee Wong

◎简 介

亚豹与大兜在钵兰街过着吵兄弟的生活。豹原在别墅任马夫,人称钵兰街大少,惜在一次打斗中后脑受伤,自始变成傻豹。另外,为人讲义气的瑶琼贪厚而与江湖大佬打睹,最后全军覆没,好友曲奇助瑶逃走,幸遇大兜而避过基哥的追逐,惜好景不常,瑶终被绑走,豹拾身救瑶而受伤。大兜为豹报仇,将基一只耳朵咬下而入狱,豹在瑶悉心照顾下回复正常,在迎接大兜出狱时,赌多他义字金牌,并封他为钵兰街二少,基心有不甘,锐意报复。

  1. General

  2. Unique ID : 216878185629637355421842981623221011282 (0xA329381D6A70ABF62B3EAF2BD0994352)

  3. Complete name : The Prince of Portland Street 1993 WEB-DL 1080p H265 AAC-Dave.mkv

  4. Format : Matroska

  5. Format version : Version 4

  6. File size : 3.02 GiB

  7. Duration : 1 h 33 min

  8. Overall bit rate : 4 644 kb/s

  9. Encoded date : UTC 2021-06-05 11:08:20

  10. Writing application : mkvmerge v19.0.0 (‘Brave Captain‘) 64-bit

  11. Writing library : libebml v1.3.5 + libmatroska v1.4.8


  12. Video

  13. ID : 1

  14. Format : HEVC

  15. Format/Info : High Efficiency Video Coding

  16. Format profile : [email protected]@High

  17. Codec ID : V_MPEGH/ISO/HEVC

  18. Duration : 1 h 33 min

  19. Bit rate : 4 516 kb/s

  20. Width : 1 920 pixels

  21. Height : 1 080 pixels

  22. Display aspect ratio : 16:9

  23. Frame rate mode : Constant

  24. Frame rate : 24.000 FPS

  25. Color space : YUV

  26. Chroma subsampling : 4:2:0

  27. Bit depth : 8 bits

  28. Bits/(Pixel*Frame) : 0.091

  29. Stream size : 2.94 GiB (97%)

  30. Default : Yes

  31. Forced : No


  32. Audio

  33. ID : 2

  34. Format : AAC LC

  35. Format/Info : Advanced Audio Codec Low Complexity

  36. Codec ID : A_AAC-2

  37. Duration : 1 h 33 min

  38. Bit rate : 124 kb/s

  39. Channel(s) : 2 channels

  40. Channel layout : L R

  41. Sampling rate : 44.1 kHz

  42. Frame rate : 43.066 FPS (1024 SPF)

  43. Compression mode : Lossy

  44. Stream size : 82.8 MiB (3%)

  45. Title : 国语

  46. Language : Chinese

  47. Default : Yes

  48. Forced : No


  49. Text #1

  50. ID : 3

  51. Format : UTF-8

  52. Codec ID : S_TEXT/UTF8

  53. Codec ID/Info : UTF-8 Plain Text

  54. Duration : 1 h 30 min

  55. Bit rate : 49 b/s

  56. Count of elements : 1372

  57. Stream size : 32.8 KiB (0%)

  58. Title : 简体中文

  59. Language : Chinese

  60. Default : Yes

  61. Forced : No


  62. Text #2

  63. ID : 4

  64. Format : UTF-8

  65. Codec ID : S_TEXT/UTF8

  66. Codec ID/Info : UTF-8 Plain Text

  67. Duration : 1 h 30 min

  68. Bit rate : 49 b/s

  69. Count of elements : 1372

  70. Stream size : 32.8 KiB (0%)

  71. Title : 繁体中文

  72. Language : Chinese

  73. Default : No

  74. Forced : No


  75. Text #3

  76. ID : 5

  77. Format : UTF-8

  78. Codec ID : S_TEXT/UTF8

  79. Codec ID/Info : UTF-8 Plain Text

  80. Duration : 1 h 30 min

  81. Bit rate : 57 b/s

  82. Count of elements : 1372

  83. Stream size : 38.2 KiB (0%)

  84. Title : 英语

  85. Language : English

  86. Default : No

  87. Forced : No


  88. Text #4

  89. ID : 6

  90. Format : UTF-8

  91. Codec ID : S_TEXT/UTF8

  92. Codec ID/Info : UTF-8 Plain Text

  93. Duration : 1 h 30 min

  94. Bit rate : 84 b/s

  95. Count of elements : 1372

  96. Stream size : 55.6 KiB (0%)

  97. Title : 韩语

  98. Language : Korean

  99. Default : No

  100. Forced : No


  101. Text #5

  102. ID : 7

  103. Format : UTF-8

  104. Codec ID : S_TEXT/UTF8

  105. Codec ID/Info : UTF-8 Plain Text

  106. Duration : 1 h 30 min

  107. Bit rate : 145 b/s

  108. Count of elements : 1372

  109. Stream size : 96.4 KiB (0%)

  110. Title : 泰语

  111. Language : Thai

  112. Default : No

  113. Forced : No


  114. Text #6

  115. ID : 8

  116. Format : UTF-8

  117. Codec ID : S_TEXT/UTF8

  118. Codec ID/Info : UTF-8 Plain Text

  119. Duration : 1 h 30 min

  120. Bit rate : 63 b/s

  121. Count of elements : 1372

  122. Stream size : 41.6 KiB (0%)

  123. Title : 马来语

  124. Language : Malay

  125. Default : No

  126. Forced : No


  127. Text #7

  128. ID : 9

  129. Format : UTF-8

  130. Codec ID : S_TEXT/UTF8

  131. Codec ID/Info : UTF-8 Plain Text

  132. Duration : 1 h 30 min

  133. Bit rate : 82 b/s

  134. Count of elements : 1372

  135. Stream size : 54.2 KiB (0%)

  136. Title : 越南语

  137. Language : Vietnamese

  138. Default : No

  139. Forced : No


  140. Text #8

  141. ID : 10

  142. Format : UTF-8

  143. Codec ID : S_TEXT/UTF8

  144. Codec ID/Info : UTF-8 Plain Text

  145. Duration : 1 h 30 min

  146. Bit rate : 64 b/s

  147. Count of elements : 1372

  148. Stream size : 42.3 KiB (0%)

  149. Title : 印尼语

  150. Language : Indonesian

  151. Default : No

  152. Forced : No


  153. Text #9

  154. ID : 11

  155. Format : UTF-8

  156. Codec ID : S_TEXT/UTF8

  157. Codec ID/Info : UTF-8 Plain Text

  158. Duration : 1 h 30 min

  159. Bit rate : 58 b/s

  160. Count of elements : 1372

  161. Stream size : 38.7 KiB (0%)

  162. Title : 西班牙语

  163. Language : Spanish

  164. Default : No

  165. Forced : No


  166. Text #10

  167. ID : 12

  168. Format : UTF-8

  169. Codec ID : S_TEXT/UTF8

  170. Codec ID/Info : UTF-8 Plain Text

  171. Duration : 1 h 30 min

  172. Bit rate : 62 b/s

  173. Count of elements : 1372

  174. Stream size : 41.4 KiB (0%)

  175. Title : 葡萄牙语

  176. Language : Portuguese

  177. Default : No

  178. Forced : No


  179. Text #11

  180. ID : 13

  181. Format : UTF-8

  182. Codec ID : S_TEXT/UTF8

  183. Codec ID/Info : UTF-8 Plain Text

  184. Duration : 1 h 30 min

  185. Bit rate : 78 b/s

  186. Count of elements : 1372

  187. Stream size : 51.7 KiB (0%)

  188. Title : 阿拉伯语

  189. Language : Arabic

  190. Default : No

  191. Forced : No

复制代码




此处一般会放置磁力链或电驴下载链接,不过此链接需要注册会员才能看到,点击“立即注册”
磁力链下载【磁力链接仅对注册会员开放,登陆后可见】

TAGS 犯罪

上传的附件:

BT9527.com论坛第一帅,不接受任何反驳
BT9527电影天堂 1、BT9527电影天堂提供的BT文件均来源于互联网抓取,只供网友学习交流、技术提升使用。
2、我们遵守BitTorrent点对点协议原则,任何版权问题请联系原资源发布商,我们不处理任何版权纠纷,谢谢!如有争议请联系邮箱:BT9527#hotmail.com(#换成@)
3、如果您发现某页面或地址有错误,请联系站长邮箱BT9527#hotmail.com(#换成@),我们会尽快处理。您的热心是对BT9527电影天堂最大的支持。
4、本站建议去正规影院观看电影以支持电影行业发展。

最新回复 (0)

你可以在 登录 or 注册 后,对此帖发表评论!

返回