可爱的你.4K迅雷下载[国语.中文字幕].Little.Big.Master.2015.WEB-DL.2160p

版主小s 19天前 386

◎译 名 可爱的你 / 5个小孩的校长 / Little Big Master / 五个小孩的校长

◎片 名 五個小孩的校長

◎年 代 2015

◎产 地 中国香港 / 中国大陆

◎类 别 剧情

◎语 言 汉语普通话 / 粤语

◎上映日期 2015-03-19(中国香港) / 2015-03-20(中国大陆) / 2015-04-02(中国台湾)

◎IMDb评分 7.3/10 from 699 users

◎IMDb链接 https://www.imdb.com/title/tt4319698

◎豆瓣评分 7.9/10 from 39666 users

◎豆瓣链接 https://movie.douban.com/subject/25870236/

◎片 长 113分钟

◎导 演 关信辉 Adrian Kwan

◎编 剧 关信辉 Adrian Kwan / 张佩琼 Hannah Chang Pui King

◎主 演 杨千嬅 Miriam Yeung

古天乐 Louis Koo

王诗雅 Keira Wang

傅舜盈 Shun ying Fu

陈丽儿 Khan Nayab

李咏珊 Zaha Fathima

何涴潆 Ho Yuen Ying Winnie

吴耀汉 Richard Ng

吴浣仪 Yuen Yee Ng

姜皓文 Philip Keung Ho-Man

刘玉翠 Rain Lau

狄哲龙 Dhillon Harjit Singh

利绵娜 Asnani Mena

冯淬帆 Stanley Fung

马浴柯 Marc Ma

火火 Fire Lee Ka Wing

黄文慧 Man-Wai Wong

森美 Sammy Leung

欧锦棠 Stephen Au

冯素波 So-Po Fung

欧倩怡 Cindy Au

秦煌 Wong Chun

余达志 Tat-chi Yu

狼森 Philippe Joly

李敏 Ranya Lee

詹朗林 Jackie Jim

李泳珊 Rain Lee

◎标 签 温情 | 香港 | 教育 | 剧情 | 2015 | 感人 | 文艺片 | 老师

◎简 介

吕慧红(杨千嬅 饰)曾经是名校校长,和丈夫谢永东(古天乐 饰)结婚多年,感情依然恩爱如初,幸福美满的两人即将迎来他们的十周年结婚纪念日。吕慧红早早离开了工作岗位,为了半年之后的环球旅行做起了准备,内心里满怀着期待和盼望。一次偶然中,吕慧红得知一所名叫元田的幼儿园濒临倒闭的边缘,而园中仅有小雪(何涴潆 饰)、珠女(王诗雅 饰)、嘉嘉(傅舜盈 饰)、凯蒂(李咏珊 饰)和珍妮(陈丽儿 饰)五个天真单纯的孩子,如果幼儿园倒闭,那么这五个孩子将要面对无学可上的糟糕现实。冲动之下,吕慧红决定成为元田幼儿园的园长,哪知道想要胜任这一职位,需要付出那么多的努力和那么大的代价。

◎获奖情况

第35届香港电影金像奖(2016)

最佳电影(提名)

最佳导演(提名) 关信辉

最佳编剧(提名) 张佩琼 / 关信辉

最佳女主角(提名) 杨千嬅

最佳女配角(提名) 吴浣仪

  1. 引用



  2. General

  3. Complete name : Little.Big.Master.2015.WEB-DL.2160p.H265.AAC-PTHweb.mp4

  4. Format : MPEG-4

  5. Format profile : Base Media

  6. Codec ID : isom (isom/iso2/mp41)

  7. File size : 2.76 GiB

  8. Duration : 1 h 52 min

  9. Overall bit rate mode : Variable

  10. Overall bit rate : 3 514 kb/s

  11. Writing application : Lavf58.32.104


  12. Video

  13. ID : 1

  14. Format : HEVC

  15. Format/Info : High Efficiency Video Coding

  16. Format profile : [email protected]@Main

  17. Codec ID : hev1

  18. Codec ID/Info : High Efficiency Video Coding

  19. Duration : 1 h 52 min

  20. Bit rate : 3 383 kb/s

  21. Width : 3 840 pixels

  22. Height : 1 632 pixels

  23. Display aspect ratio : 2.35:1

  24. Frame rate mode : Constant

  25. Frame rate : 24.000 FPS

  26. Color space : YUV

  27. Chroma subsampling : 4:2:0

  28. Bit depth : 8 bits

  29. Bits/(Pixel*Frame) : 0.022

  30. Stream size : 2.66 GiB (96%)

  31. Codec configuration box : hvcC


  32. Audio

  33. ID : 2

  34. Format : AAC LC

  35. Format/Info : Advanced Audio Codec Low Complexity

  36. Codec ID : mp4a-40-2

  37. Duration : 1 h 52 min

  38. Bit rate mode : Variable

  39. Bit rate : 124 kb/s

  40. Maximum bit rate : 129 kb/s

  41. Channel(s) : 2 channels

  42. Channel layout : L R

  43. Sampling rate : 44.1 kHz

  44. Frame rate : 43.066 FPS (1024 SPF)

  45. Compression mode : Lossy

  46. Stream size : 100.0 MiB (4%)

  47. Default : Yes

  48. Alternate group : 1

复制代码




此处一般会放置磁力链或电驴下载链接,不过此链接需要注册会员才能看到,点击“立即注册”
磁力链下载【磁力链接仅对注册会员开放,登陆后可见】

TAGS 剧情

上传的附件:

BT9527.com论坛第一帅,不接受任何反驳
BT9527电影天堂 1、BT9527电影天堂提供的BT文件均来源于互联网抓取,只供网友学习交流、技术提升使用。
2、我们遵守BitTorrent点对点协议原则,任何版权问题请联系原资源发布商,我们不处理任何版权纠纷,谢谢!如有争议请联系邮箱:BT9527#hotmail.com(#换成@)
3、如果您发现某页面或地址有错误,请联系站长邮箱BT9527#hotmail.com(#换成@),我们会尽快处理。您的热心是对BT9527电影天堂最大的支持。
4、本站建议去正规影院观看电影以支持电影行业发展。

最新回复 (0)

你可以在 登录 or 注册 后,对此帖发表评论!

返回