活死人军团[中文字幕]迅雷下载.4K.Army.of.the.Dead.2021.2160p

版主小s 24天前 333

◎译 名 活死人军团/Army of the Damned/不死丧军(港)/亡灵大军/亡者之师/僵尸军团/死亡之师/死亡军团/活尸大军(台)

◎片 名 Army of the Dead

◎年 代 2021

◎产 地 美国

◎类 别 动作 / 科幻 / 恐怖

◎语 言 英语

◎上映日期 2021-05-14(美国) / 2021-05-21(美国网络)

◎IMDb评分 6.0/10 from 57496 users

◎IMDb链接 https://www.imdb.com/title/tt0993840/

◎豆瓣评分 5.4/10 from 23916 users

◎豆瓣链接 https://movie.douban.com/subject/3099221/

◎片 长 148分钟

◎导 演 扎克·施奈德 Zack Snyder

◎编 剧 扎克·施奈德 Zack Snyder / 卓比·哈罗德 Joby Harold / 谢伊·哈顿 Shay Hatten

◎主 演 戴夫·巴蒂斯塔 Dave Bautista

艾拉·珀内尔 Ella Purnell

安娜·德拉·雷古拉 Ana de la Reguera

马提亚斯·施维赫夫 Matthias Schweighöfer

诺拉·阿娜泽德尔 Nora Arnezeder

真田广之 Hiroyuki Sanada

劳尔·卡斯提洛 Raúl Castillo

迈克尔·卡西迪 Michael Cassidy

加瑞特·迪拉胡特 Garret Dillahunt

萨曼塔·若 Samantha Jo

西奥·罗西 Theo Rossi

欧玛瑞·哈德威克 Omari Hardwick

泰格·诺塔洛 Tig Notaro

洛拉·玛汀内斯-康宁安 Lora Martinez-Cunningham

里昂·贝克维思 Lyon Beckwith

萨拉·明妮奇 Sarah Minnich

切尔西·埃德蒙森 Chelsea Edmundson

迈克尔·雷德·麦基 Michael Reid MacKay

胡玛·库雷希 Huma Qureshi

理查德·赛特伦 Richard Cetrone

丹尼埃尔·布鲁吉奥 Danielle Burgio

瑞恩·沃森 Ryan Watson

韦恩·达格利什 Wayne Dalglish

莎伊娜·瑞恩 Shayna Ryan

戴维·鲍尔斯 David Bowles

乔恩·道格拉斯·雷尼 Jon Douglas Rainey

加里·A·赫克 Gary A. Hecker

斯蒂芬妮·希尔 Stephanie Hill

罗比·德拉费勒 Robbie DeRaffele

詹姆斯·凯迪 James Cady

雅各布·布朗 Jacob Browne

大卫·冯·罗姆 David Von Roehm

费尔南多·劳拉 Fernando Lara

蒂莫西·奥蒂斯 Timothy Otis

薇·妮可西 V Nixie

◎标 签 丧尸 | 扎克·施奈德 | 丧尸片 | Netflix | 美国 | 动作 | 恐怖 | 科幻

◎简 介

影片的故事发生在丧尸危机爆发的拉斯维加斯,在此期间,一名男子集结一群雇佣兵进行最终的赌博,冒险进入隔离区,以阻止有史以来最大的劫案。

  1. 引用

  2. General

  3. Unique ID : 274942121812582681783977459948944230397 (0xCED7ED318B194B5BC28D0C8F677A07FD)

  4. Complete name : Army.of.the.Dead.2021.2160p.NF.WEBRip.x265.10bit.HDR.DDP5.1.Atmos-NoGRP.mkv

  5. Format : Matroska

  6. Format version : Version 4

  7. File size : 12.0 GiB

  8. Duration : 2 h 28 min

  9. Overall bit rate : 11.6 Mb/s

  10. Encoded date : UTC 2021-05-24 00:17:17

  11. Writing application : mkvmerge v57.0.0 ('Till The End') 64-bit

  12. Writing library : libebml v1.4.2 + libmatroska v1.6.4


  13. Video

  14. ID : 1

  15. Format : HEVC

  16. Format/Info : High Efficiency Video Coding

  17. Format profile : Main [email protected]@High

  18. HDR format : SMPTE ST 2086, HDR10 compatible

  19. Codec ID : V_MPEGH/ISO/HEVC

  20. Duration : 2 h 26 min

  21. Bit rate : 10.9 Mb/s

  22. Width : 3 840 pixels

  23. Height : 2 160 pixels

  24. Display aspect ratio : 16:9

  25. frame rate mode : Constant

  26. frame rate : 24.000 FPS

  27. Color space : YUV

  28. Chroma subsampling : 4:2:0 (Type 2)

  29. Bit depth : 10 bits

  30. Bits/(Pixel*frame) : 0.055

  31. Stream size : 11.2 GiB (93%)

  32. Writing library : x265 3.5+9-bf91444e0:[Windows][GCC 10.0.0][64 bit] 10bit

  33. Encoding settings : cpuid=533541111039 / frame-threads=4 / numa-pools=28 / wpp / no-pmode / no-pme / no-psnr / no-ssim / log-level=2 / input-csp=1 / input-res=3840x2160 / interlace=0 / total-frames=0 / level-idc=51 / high-tier=1 / uhd-bd=0 / ref=4 / no-allow-non-conformance / repeat-headers / annexb / no-aud / no-eob / no-eos / no-hrd / info / hash=0 / no-temporal-layers / no-open-gop / min-keyint=23 / keyint=250 / gop-lookahead=0 / bframes=3 / b-adapt=2 / b-pyramid / bframe-bias=0 / rc-lookahead=20 / lookahead-slices=8 / NTMzNTQ=uuDQuD2mJt9fsCf / scenecut=40 / hist-scenecut=0 / radl=0 / no-splice / no-intra-refresh / ctu=64 / min-cu-size=8 / no-rect / no-amp / max-tu-size=32 / tu-inter-depth=1 / tu-intra-depth=1 / limit-tu=0 / rdoq-level=0 / dynamic-rd=0.00 / no-ssim-rd / signhide / no-tskip / nr-intra=0 / nr-inter=0 / no-constrained-intra / no-strong-intra-smoothing / max-merge=3 / limit-refs=1 / no-limit-modes / me=1 / subme=2 / merange=57 / temporal-mvp / no-frame-dup / no-hme / weightp / no-weightb / no-analyze-src-pics / deblock=-3:-3 / no-sao / no-sao-non-deblock / rd=3 / selective-sao=0 / early-skip / rskip / no-fast-intra / no-tskip-fast / no-cu-lossless / b-intra / no-splitrd-skip / rdpenalty=0 / psy-rd=2.00 / psy-rdoq=0.00 / no-rd-refine / no-lossless / cbqpoffs=0 / crqpoffs=0 / rc=crf / crf=19.0 / qcomp=0.60 / qpstep=4 / stats-write=0 / stats-read=0 / vbv-maxrate=160000 / vbv-bufsize=160000 / vbv-init=0.9 / min-vbv-fullness=50.0 / max-vbv-fullness=80.0 / crf-max=0.0 / crf-min=0.0 / ipratio=1.40 / pbratio=1.30 / aq-mode=2 / aq-strength=1.00 / no-cutree / zone-count=0 / no-strict-cbr / qg-size=32 / no-rc-grain / qpmax=69 / qpmin=0 / no-const-vbv / sar=0 / overscan=0 / videoformat=5 / range=0 / colorprim=9 / transfer=16 / colormatrix=9 / chromaloc=1 / chromaloc-top=2 / chromaloc-bottom=2 / display-window=0 / master-display=G(13250,34500)B(7500,3000)R(34000,16000)WP(15635,16450)L(10000000,1) / cll=2473,596 / min-luma=0 / max-luma=1023 / log2-max-poc-lsb=8 / vui-timing-info / vui-hrd-info / slices=1 / no-opt-qp-pps / no-opt-ref-list-length-pps / no-multi-pass-opt-rps / scenecut-bias=0.05 / hist-threshold=0.03 / no-opt-cu-delta-qp / no-aq-motion / hdr10 / hdr10-opt / no-dhdr10-opt / no-idr-recovery-sei / analysis-reuse-level=0 / analysis-save-reuse-level=0 / analysis-load-reuse-level=0 / scale-factor=0 / refine-intra=0 / refine-inter=0 / refine-mv=1 / refine-ctu-distortion=0 / no-limit-sao / ctu-info=0 / no-lowpass-dct / refine-analysis-type=0 / copy-pic=1 / max-ausize-factor=1.0 / no-dynamic-refine / no-single-sei / no-hevc-aq / no-svt / no-field / qp-adaptation-range=1.00 / scenecut-aware-qp=0conformance-window-offsets / right=0 / bottom=0 / NTMzNTQ= / decoder-max-rate=0 / no-vbv-live-multi-pass

  34. Default : Yes

  35. Forced : No

  36. Color range : Limited

  37. Color primaries : BT.2020

  38. Transfer characteristics : PQ

  39. Matrix coefficients : BT.2020 non-constant

  40. Mastering display color primar : Display P3

  41. Mastering display luminance : min: 0.0001 cd/m2, max: 1000 cd/m2

  42. Maximum Content Light Level : 2473 cd/m2

  43. Maximum frame-Average Light Le : 596 cd/m2


  44. Audio

  45. ID : 2

  46. Format : E-AC-3 JOC

  47. Format/Info : Enhanced AC-3 with Joint object Coding

  48. Commercial name : Dolby Digital Plus with Dolby Atmos

  49. Codec ID : A_EAC3

  50. Duration : 2 h 28 min

  51. Bit rate mode : Constant

  52. Bit rate : 768 kb/s

  53. Channel(s) : 6 channels

  54. Channel layout : L R C LFE Ls Rs

  55. Sampling rate : 48.0 kHz

  56. frame rate : 31.250 FPS (1536 SPF)

  57. Compression mode : Lossy

  58. Delay relative to video : 6 ms

  59. Stream size : 815 MiB (7%)

  60. Language : English

  61. Service kind : Complete Main

  62. Default : Yes

  63. Forced : No

  64. Complexity index : 16

  65. Number of dynamic objects : 15

  66. Bed channel count : 1 channel

  67. Bed channel configuration : LFE


  68. Text #1

  69. ID : 3

  70. Format : UTF-8

  71. Codec ID : S_TEXT/UTF8

  72. Codec ID/Info : UTF-8 Plain Text

  73. Duration : 17 s 584 ms

  74. Bit rate : 104 b/s

  75. Count of elements : 7

  76. Stream size : 230 Bytes (0%)

  77. title : English [Forced]

  78. Language : English

  79. Default : Yes

  80. Forced : Yes


  81. Text #2

  82. ID : 4

  83. Format : UTF-8

  84. Codec ID : S_TEXT/UTF8

  85. Codec ID/Info : UTF-8 Plain Text

  86. Duration : 2 h 23 min

  87. Bit rate : 55 b/s

  88. Count of elements : 1992

  89. Stream size : 59.0 KiB (0%)

  90. title : English [SDH]

  91. Language : English

  92. Default : No

  93. Forced : No


  94. Text #3

  95. ID : 5

  96. Format : UTF-8

  97. Codec ID : S_TEXT/UTF8

  98. Codec ID/Info : UTF-8 Plain Text

  99. Duration : 2 h 26 min

  100. Bit rate : 68 b/s

  101. Count of elements : 1460

  102. Stream size : 72.9 KiB (0%)

  103. title : Arabic

  104. Language : Arabic

  105. Default : No

  106. Forced : No


  107. Text #4

  108. ID : 6

  109. Format : UTF-8

  110. Codec ID : S_TEXT/UTF8

  111. Codec ID/Info : UTF-8 Plain Text

  112. Duration : 2 h 26 min

  113. Bit rate : 38 b/s

  114. Count of elements : 1455

  115. Stream size : 41.2 KiB (0%)

  116. title : Chinese Simplified

  117. Language : Chinese

  118. Default : No

  119. Forced : No


  120. Text #5

  121. ID : 7

  122. Format : UTF-8

  123. Codec ID : S_TEXT/UTF8

  124. Codec ID/Info : UTF-8 Plain Text

  125. Duration : 2 h 26 min

  126. Bit rate : 38 b/s

  127. Count of elements : 1529

  128. Stream size : 41.5 KiB (0%)

  129. title : Chinese Traditional

  130. Language : Chinese

  131. Default : No

  132. Forced : No


  133. Text #6

  134. ID : 8

  135. Format : UTF-8

  136. Codec ID : S_TEXT/UTF8

  137. Codec ID/Info : UTF-8 Plain Text

  138. Duration : 2 h 25 min

  139. Bit rate : 33 b/s

  140. Count of elements : 1447

  141. Stream size : 35.6 KiB (0%)

  142. title : Croatian

  143. Language : Croatian

  144. Default : No

  145. Forced : No


  146. Text #7

  147. ID : 9

  148. Format : UTF-8

  149. Codec ID : S_TEXT/UTF8

  150. Codec ID/Info : UTF-8 Plain Text

  151. Duration : 2 h 26 min

  152. Bit rate : 35 b/s

  153. Count of elements : 1448

  154. Stream size : 38.3 KiB (0%)

  155. title : Czech

  156. Language : Czech

  157. Default : No

  158. Forced : No


  159. Text #8

  160. ID : 10

  161. Format : UTF-8

  162. Codec ID : S_TEXT/UTF8

  163. Codec ID/Info : UTF-8 Plain Text

  164. Duration : 2 h 26 min

  165. Bit rate : 33 b/s

  166. Count of elements : 1340

  167. Stream size : 36.3 KiB (0%)

  168. title : Danish

  169. Language : Danish

  170. Default : No

  171. Forced : No


  172. Text #9

  173. ID : 11

  174. Format : UTF-8

  175. Codec ID : S_TEXT/UTF8

  176. Codec ID/Info : UTF-8 Plain Text

  177. Duration : 2 h 26 min

  178. Bit rate : 33 b/s

  179. Count of elements : 1225

  180. Stream size : 35.6 KiB (0%)

  181. title : Dutch

  182. Language : Dutch

  183. Default : No

  184. Forced : No


  185. Text #10

  186. ID : 12

  187. Format : UTF-8

  188. Codec ID : S_TEXT/UTF8

  189. Codec ID/Info : UTF-8 Plain Text

  190. Duration : 2 h 26 min

  191. Bit rate : 34 b/s

  192. Count of elements : 1364

  193. Stream size : 36.9 KiB (0%)

  194. title : European Spanish

  195. Language : Spanish

  196. Default : No

  197. Forced : No


  198. Text #11

  199. ID : 13

  200. Format : UTF-8

  201. Codec ID : S_TEXT/UTF8

  202. Codec ID/Info : UTF-8 Plain Text

  203. Duration : 2 h 26 min

  204. Bit rate : 35 b/s

  205. Count of elements : 1367

  206. Stream size : 37.8 KiB (0%)

  207. title : Finnish

  208. Language : Finnish

  209. Default : No

  210. Forced : No


  211. Text #12

  212. ID : 14

  213. Format : UTF-8

  214. Codec ID : S_TEXT/UTF8

  215. Codec ID/Info : UTF-8 Plain Text

  216. Duration : 2 h 26 min

  217. Bit rate : 36 b/s

  218. Count of elements : 1309

  219. Stream size : 39.3 KiB (0%)

  220. title : French

  221. Language : French

  222. Default : No

  223. Forced : No


  224. Text #13

  225. ID : 15

  226. Format : UTF-8

  227. Codec ID : S_TEXT/UTF8

  228. Codec ID/Info : UTF-8 Plain Text

  229. Duration : 2 h 26 min

  230. Bit rate : 36 b/s

  231. Count of elements : 1381

  232. Stream size : 39.0 KiB (0%)

  233. title : German

  234. Language : German

  235. Default : No

  236. Forced : No


  237. Text #14

  238. ID : 16

  239. Format : UTF-8

  240. Codec ID : S_TEXT/UTF8

  241. Codec ID/Info : UTF-8 Plain Text

  242. Duration : 2 h 26 min

  243. Bit rate : 60 b/s

  244. Count of elements : 1436

  245. Stream size : 64.7 KiB (0%)

  246. title : Greek

  247. Language : Greek

  248. Default : No

  249. Forced : No


  250. Text #15

  251. ID : 17

  252. Format : UTF-8

  253. Codec ID : S_TEXT/UTF8

  254. Codec ID/Info : UTF-8 Plain Text

  255. Duration : 2 h 26 min

  256. Bit rate : 60 b/s

  257. Count of elements : 1403

  258. Stream size : 65.2 KiB (0%)

  259. title : Hebrew

  260. Language : Hebrew

  261. Default : No

  262. Forced : No


  263. Text #16

  264. ID : 18

  265. Format : UTF-8

  266. Codec ID : S_TEXT/UTF8

  267. Codec ID/Info : UTF-8 Plain Text

  268. Duration : 2 h 26 min

  269. Bit rate : 35 b/s

  270. Count of elements : 1413

  271. Stream size : 37.6 KiB (0%)

  272. title : Hungarian

  273. Language : Hungarian

  274. Default : No

  275. Forced : No


  276. Text #17

  277. ID : 19

  278. Format : UTF-8

  279. Codec ID : S_TEXT/UTF8

  280. Codec ID/Info : UTF-8 Plain Text

  281. Duration : 2 h 26 min

  282. Bit rate : 34 b/s

  283. Count of elements : 1444

  284. Stream size : 37.0 KiB (0%)

  285. title : Indonesian

  286. Language : Indonesian

  287. Default : No

  288. Forced : No


  289. Text #18

  290. ID : 20

  291. Format : UTF-8

  292. Codec ID : S_TEXT/UTF8

  293. Codec ID/Info : UTF-8 Plain Text

  294. Duration : 2 h 26 min

  295. Bit rate : 35 b/s

  296. Count of elements : 1401

  297. Stream size : 37.7 KiB (0%)

  298. title : Italian

  299. Language : Italian

  300. Default : No

  301. Forced : No


  302. Text #19

  303. ID : 21

  304. Format : UTF-8

  305. Codec ID : S_TEXT/UTF8

  306. Codec ID/Info : UTF-8 Plain Text

  307. Duration : 2 h 26 min

  308. Bit rate : 37 b/s

  309. Count of elements : 1415

  310. Stream size : 40.3 KiB (0%)

  311. title : Japanese

  312. Language : Japanese

  313. Default : No

  314. Forced : No


  315. Text #20

  316. ID : 22

  317. Format : UTF-8

  318. Codec ID : S_TEXT/UTF8

  319. Codec ID/Info : UTF-8 Plain Text

  320. Duration : 2 h 26 min

  321. Bit rate : 45 b/s

  322. Count of elements : 1473

  323. Stream size : 48.8 KiB (0%)

  324. title : Korean

  325. Language : Korean

  326. Default : No

  327. Forced : No


  328. Text #21

  329. ID : 23

  330. Format : UTF-8

  331. Codec ID : S_TEXT/UTF8

  332. Codec ID/Info : UTF-8 Plain Text

  333. Duration : 2 h 26 min

  334. Bit rate : 33 b/s

  335. Count of elements : 1445

  336. Stream size : 35.8 KiB (0%)

  337. title : Malay

  338. Language : Malay

  339. Default : No

  340. Forced : No


  341. Text #22

  342. ID : 24

  343. Format : UTF-8

  344. Codec ID : S_TEXT/UTF8

  345. Codec ID/Info : UTF-8 Plain Text

  346. Duration : 2 h 26 min

  347. Bit rate : 35 b/s

  348. Count of elements : 1350

  349. Stream size : 38.2 KiB (0%)

  350. title : Norwegian

  351. Language : Norwegian Bokmal

  352. Default : No

  353. Forced : No


  354. Text #23

  355. ID : 25

  356. Format : UTF-8

  357. Codec ID : S_TEXT/UTF8

  358. Codec ID/Info : UTF-8 Plain Text

  359. Duration : 2 h 26 min

  360. Bit rate : 30 b/s

  361. Count of elements : 1403

  362. Stream size : 32.6 KiB (0%)

  363. title : Polish

  364. Language : Polish

  365. Default : No

  366. Forced : No


  367. Text #24

  368. ID : 26

  369. Format : UTF-8

  370. Codec ID : S_TEXT/UTF8

  371. Codec ID/Info : UTF-8 Plain Text

  372. Duration : 2 h 26 min

  373. Bit rate : 35 b/s

  374. Count of elements : 1448

  375. Stream size : 38.2 KiB (0%)

  376. title : Portuguese

  377. Language : Portuguese

  378. Default : No

  379. Forced : No


  380. Text #25

  381. ID : 27

  382. Format : UTF-8

  383. Codec ID : S_TEXT/UTF8

  384. Codec ID/Info : UTF-8 Plain Text

  385. Duration : 2 h 26 min

  386. Bit rate : 35 b/s

  387. Count of elements : 1463

  388. Stream size : 38.4 KiB (0%)

  389. title : Portuguese Brazilian

  390. Language : Portuguese

  391. Default : No

  392. Forced : No


  393. Text #26

  394. ID : 28

  395. Format : UTF-8

  396. Codec ID : S_TEXT/UTF8

  397. Codec ID/Info : UTF-8 Plain Text

  398. Duration : 2 h 26 min

  399. Bit rate : 40 b/s

  400. Count of elements : 1299

  401. Stream size : 42.8 KiB (0%)

  402. title : Romanian

  403. Language : Romanian

  404. Default : No

  405. Forced : No


  406. Text #27

  407. ID : 29

  408. Format : UTF-8

  409. Codec ID : S_TEXT/UTF8

  410. Codec ID/Info : UTF-8 Plain Text

  411. Duration : 2 h 26 min

  412. Bit rate : 59 b/s

  413. Count of elements : 1447

  414. Stream size : 63.5 KiB (0%)

  415. title : Russian

  416. Language : Russian

  417. Default : No

  418. Forced : No


  419. Text #28

  420. ID : 30

  421. Format : UTF-8

  422. Codec ID : S_TEXT/UTF8

  423. Codec ID/Info : UTF-8 Plain Text

  424. Duration : 2 h 26 min

  425. Bit rate : 36 b/s

  426. Count of elements : 1421

  427. Stream size : 38.6 KiB (0%)

  428. title : Spanish

  429. Language : Spanish

  430. Default : No

  431. Forced : No


  432. Text #29

  433. ID : 31

  434. Format : UTF-8

  435. Codec ID : S_TEXT/UTF8

  436. Codec ID/Info : UTF-8 Plain Text

  437. Duration : 2 h 26 min

  438. Bit rate : 36 b/s

  439. Count of elements : 1373

  440. Stream size : 38.8 KiB (0%)

  441. title : Swedish

  442. Language : Swedish

  443. Default : No

  444. Forced : No


  445. Text #30

  446. ID : 32

  447. Format : UTF-8

  448. Codec ID : S_TEXT/UTF8

  449. Codec ID/Info : UTF-8 Plain Text

  450. Duration : 2 h 26 min

  451. Bit rate : 95 b/s

  452. Count of elements : 1454

  453. Stream size : 102 KiB (0%)

  454. title : Thai

  455. Language : Thai

  456. Default : No

  457. Forced : No


  458. Text #31

  459. ID : 33

  460. Format : UTF-8

  461. Codec ID : S_TEXT/UTF8

  462. Codec ID/Info : UTF-8 Plain Text

  463. Duration : 2 h 26 min

  464. Bit rate : 37 b/s

  465. Count of elements : 1310

  466. Stream size : 39.6 KiB (0%)

  467. title : Turkish

  468. Language : Turkish

  469. Default : No

  470. Forced : No


  471. Text #32

  472. ID : 34

  473. Format : UTF-8

  474. Codec ID : S_TEXT/UTF8

  475. Codec ID/Info : UTF-8 Plain Text

  476. Duration : 2 h 26 min

  477. Bit rate : 58 b/s

  478. Count of elements : 1446

  479. Stream size : 62.3 KiB (0%)

  480. title : Ukrainian

  481. Language : Ukrainian

  482. Default : No

  483. Forced : No


  484. Text #33

  485. ID : 35

  486. Format : UTF-8

  487. Codec ID : S_TEXT/UTF8

  488. Codec ID/Info : UTF-8 Plain Text

  489. Duration : 2 h 26 min

  490. Bit rate : 51 b/s

  491. Count of elements : 1422

  492. Stream size : 54.7 KiB (0%)

  493. title : Vietnamese

  494. Language : Vietnamese

  495. Default : No

  496. Forced : No


复制代码



此处一般会放置磁力链或电驴下载链接,不过此链接需要注册会员才能看到,点击“立即注册”
磁力链下载【磁力链接仅对注册会员开放,登陆后可见】

TAGS 动作 恐怖 科幻

上传的附件:

BT9527.com论坛第一帅,不接受任何反驳
BT9527电影天堂 1、BT9527电影天堂提供的BT文件均来源于互联网抓取,只供网友学习交流、技术提升使用。
2、我们遵守BitTorrent点对点协议原则,任何版权问题请联系原资源发布商,我们不处理任何版权纠纷,谢谢!如有争议请联系邮箱:BT9527#hotmail.com(#换成@)
3、如果您发现某页面或地址有错误,请联系站长邮箱BT9527#hotmail.com(#换成@),我们会尽快处理。您的热心是对BT9527电影天堂最大的支持。
4、本站建议去正规影院观看电影以支持电影行业发展。

最新回复 (0)

你可以在 登录 or 注册 后,对此帖发表评论!

返回