温故一九四二.迅雷下载[国语简繁字幕].Back.To.1942.2012.BluRay.H265.10Bit.DDP(7.1).1080P

版主小s 24天前 171

◎译 名 1942/温故1942/温故一九四二/Back to 1942

◎片 名 一九四二

◎年 代 2012

◎产 地 中国大陆

◎类 别 剧情/历史/战争/灾难

◎语 言 河南方言/英语/日语/汉语普通话

◎上映日期 2012-11-11(罗马电影节)/2012-11-29(中国大陆)

◎IMDb评分 6.9/10 from 2,942 users

◎IMDb链接 https://www.imdb.com/title/tt2113822/

◎豆瓣评分 7.7/10 from 206959 users

◎豆瓣链接 https://douban.com/subject/6011805/

◎片 长 146分钟

◎导 演 冯小刚 Xiaogang Feng

◎编 剧 刘震云 Zhenyun Liu

◎主 演 张国立 Guoli Zhang

张默 Mo Zhang

徐帆 Fan Xu

李雪健 Xuejian Li

陈道明 Daoming Chen

艾德里安·布洛迪 Adrien Brody

蒂姆·罗宾斯 Tim Robbins

冯远征 Yuanzheng Feng

张涵予 Hanyu Zhang

王子文 Ziwen Wang

段奕宏 Yihong Duan

范伟 Wei Fan

柯蓝 Lan Ke

张国强 Guoqiang Zhang

林永健 Yongjian Lin

乔振宇 Zhenyu Qiao

李倩 Qian Li

赵毅 Yi Zhao

王钢 Gang Wang

于根艺 Genyi Yu

张志坚 Zhijian Zhang

张子枫 Zifeng Zhang

候七 Qi Hou

姜守志 Shouzhi Jiang

张东升 Dongsheng Zhang

邢思杰 Alfred Hsing

苏有朋 Alec Su

田小洁 Xiaojie Tian

吕中 Zhong Lü

于震 Zhen Yu

张少华 Shaohua Zhang

张晨光 Morning Chang

段博文 Bowen Duan

高木贞佑 Teiyu Takagi

◎标 签 历史 | 灾难 | 人性 | 河南饥荒 | 战争 | 中国大陆 | 2012 | 剧情

◎简 介

1942年,抗日战争与第二次世界大战正处于白热化阶段。燎原之火,生灵涂炭,天灾人祸,哀鸿遍野。当军事家和政治家的目光聚焦在一城一郭的征伐劫掠之时,几乎鲜少有人注意到古老的中原河南正爆发一场惨绝人寰的大旱灾。影片的主角老东家(张国立 饰),狡猾、市侩,典型的封建地主,可即便如此也无法对抗这史无前例的灾难,他被迫逃荒,亲眼见证着儿子、儿媳、老伴等亲人的种种死状。他的遭遇是三百万灾民的缩影,面对这群人的苦难,无论是高高在上的蒋委员长(陈道明 饰),还是深入民间报道灾难真相的美国记者白修德(阿德里安•布劳迪 Adrien Brody 饰),以及海内外的每一个人,如何能从这眼前的人间炼狱之景侧目。绝望无止的逃生坎途,中华民族多舛命运的苦难一斑……

本片根据刘震云的小说《温故一九四二》改编。

◎获奖情况

第50届台北金马影展 (2013)

金马奖最佳男配角 李雪健

金马奖最佳改编剧本(提名) 刘震云

金马奖最佳摄影(提名) 吕乐

金马奖最佳美术设计(提名) 石海鹰

金马奖最佳造型设计(提名) 叶锦添

金马奖最佳视觉效果(提名) 常松

第32届香港电影金像奖 (2013)

最佳两岸华语电影

第29届中国电影金鸡奖 (2013)

最佳故事片(提名)

最佳导演(提名) 冯小刚

最佳改编剧本 刘震云

最佳男主角 张国立

第15届中国电影华表奖 (2013)

优秀故事片奖

优秀导演奖 冯小刚

优秀编剧奖 刘震云

优秀电影技术奖

优秀摄影 吕乐

第3届北京国际电影节 (2013)

天坛奖最佳影片奖 冯小刚

天坛奖最佳视觉效果奖

第13届华语电影传媒大奖 (2013)

百家传媒年度致敬电影人(提名) 冯小刚

百家传媒年度致敬电影

最佳男配角(提名) 李雪健

最佳编剧 刘震云

第20届北京大学生电影节 (2013)

最佳影片奖

最佳导演奖(提名) 冯小刚

最佳编剧奖(提名) 刘震云

第3届豆瓣电影鑫像奖 (2013)

鑫豆单元最佳影片(华语)(提名)

鑫豆单元最佳男演员(华语)(提名) 张国立

  1. 引用

  2. General

  3. Unique ID : 4011467319993863365561583124198994206 (0x304949BDC6CF9E6EAD48AB2C5B0311E)

  4. Complete name : BTSBAO\温故一九四二.Back.To.1942.2012.BluRay.H265.10Bit.DDP(7.1)[email protected]

  5. Format : Matroska

  6. Format version : Version 4

  7. File size : 5.86 GiB

  8. Duration : 2 h 26 min

  9. Overall bit rate : 5 728 kb/s

  10. Movie name : 温故一九四二.Back.To.1942.2012.BluRay.H265.10Bit.DDP(7.1).1080P-NXX

  11. Encoded date : UTC 2020-02-12 02:18:33

  12. Writing application : mkvmerge v43.0.0 ('The Quartermaster') 64-bit

  13. Writing library : libebml v1.3.10 + libmatroska v1.5.2


  14. Video

  15. ID : 1

  16. Format : HEVC

  17. Format/Info : High Efficiency Video Coding

  18. Format profile : Main [email protected]@Main

  19. Codec ID : V_MPEGH/ISO/HEVC

  20. Duration : 2 h 26 min

  21. Bit rate : 4 937 kb/s

  22. Width : 1 920 pixels

  23. Height : 804 pixels

  24. Display aspect ratio : 2.40:1

  25. frame rate mode : Constant

  26. frame rate : 24.000 FPS

  27. Color space : YUV

  28. Chroma subsampling : 4:2:0

  29. Bit depth : 10 bits

  30. Bits/(Pixel*frame) : 0.133

  31. Stream size : 5.05 GiB (86%)

  32. title : NXX

  33. Writing library : x265 2.9:[Windows][GCC 7.1.0][64 bit] 10bit

  34. Encoding settings : cpuid=533541111039 / frame-threads=3 / wpp / no-pmode / no-pme / no-psnr / no-ssim / log-level=2 / input-csp=1 / input-res=1920x804 / interlace=0 / total-frames=0 / level-idc=0 / high-tier=1 / uhd-bd=0 / ref=3 / no-allow-non-conformance / no-repeat-headers / annexb / no-aud / no-hrd / info / hash=0 / no-temporal-layers / open-gop / min-keyint=24 / keyint=250 / gop-lookahead=0 / bframes=4 / b-adapt=2 / b-pyramid / bframe-bias=0 / rc-lookahead=20 / lookahead-slices=5 / NTMzNTQ=uuDQuD2mJt9fsCf / scenecut=40 / radl=0 / no-intra-refresh / ctu=64 / min-cu-size=8 / no-rect / no-amp / max-tu-size=32 / tu-inter-depth=1 / tu-intra-depth=1 / limit-tu=0 / rdoq-level=0 / dynamic-rd=0.00 / no-ssim-rd / signhide / no-tskip / nr-intra=0 / nr-inter=0 / no-constrained-intra / strong-intra-smoothing / max-merge=2 / limit-refs=3 / no-limit-modes / me=1 / subme=2 / merange=57 / temporal-mvp / weightp / no-weightb / no-analyze-src-pics / deblock=0:0 / sao / no-sao-non-deblock / rd=3 / no-early-skip / rskip / no-fast-intra / no-tskip-fast / no-cu-lossless / no-b-intra / no-splitrd-skip / rdpenalty=0 / psy-rd=2.00 / psy-rdoq=0.00 / no-rd-refine / no-lossless / cbqpoffs=0 / crqpoffs=0 / rc=abr / bitrate=5000 / qcomp=0.60 / qpstep=4 / stats-write=0 / stats-read=0 / ipratio=1.40 / pbratio=1.30 / aq-mode=1 / aq-strength=1.00 / cutree / zone-count=0 / no-strict-cbr / qg-size=32 / no-rc-grain / qpmax=69 / qpmin=0 / no-const-vbv / sar=1 / overscan=0 / videoformat=5 / range=0 / colorprim=2 / transfer=2 / colormatrix=2 / chromaloc=0 / display-window=0 / max-cll=0,0 / min-luma=0 / max-luma=1023 / log2-max-poc-lsb=8 / vui-timing-info / vui-hrd-info / slices=1 / no-opt-qp-pps / no-opt-ref-list-length-pps / no-multi-pass-opt-rps / scenecut-bias=0.05 / no-opt-cu-delta-qp / no-aq-motion / no-hdr / no-hdr-opt / no-dhdr10-opt / no-idr-recovery-sei / analysis-reuse-level=5 / scale-factor=0 / refine-intra=0 / refine-inter=0 / refine-mv=0 / no-limit-sao / ctu-info=0 / no-lowpass-dct / refine-mv-type=0 / copy-pic=1 / max-ausize-factor=1.0 / no-dynamic-refine / no-single-sei

  35. Default : No

  36. Forced : No


  37. Audio

  38. ID : 2

  39. Format : E-AC-3

  40. Format/Info : Enhanced AC-3

  41. Commercial name : Dolby Digital Plus

  42. Format profile : Blu-ray Disc

  43. Codec ID : A_EAC3

  44. Duration : 2 h 26 min

  45. Bit rate mode : Constant

  46. Bit rate : 768 kb/s

  47. Channel(s) : 8 channels

  48. Channel layout : L R C LFE Ls Rs Lb Rb

  49. Sampling rate : 48.0 kHz

  50. frame rate : 31.250 FPS (1536 SPF)

  51. Compression mode : Lossy

  52. Stream size : 804 MiB (13%)

  53. title : 国语7.1声道

  54. Service kind : Complete Main

  55. Default : Yes

  56. Forced : No


  57. Text #1

  58. ID : 3

  59. Format : PGS

  60. Muxing mode : zlib

  61. Codec ID : S_HDMV/PGS

  62. Codec ID/Info : Picture based subtitle format used on BDs/HD-DVDs

  63. Duration : 2 h 18 min

  64. Bit rate : 20.0 kb/s

  65. Count of elements : 4196

  66. Stream size : 19.8 MiB (0%)

  67. title : SUP简体

  68. Default : Yes

  69. Forced : No


  70. Text #2

  71. ID : 4

  72. Format : PGS

  73. Muxing mode : zlib

  74. Codec ID : S_HDMV/PGS

  75. Codec ID/Info : Picture based subtitle format used on BDs/HD-DVDs

  76. Duration : 2 h 18 min

  77. Bit rate : 23.0 kb/s

  78. Count of elements : 4196

  79. Stream size : 22.8 MiB (0%)

  80. title : SUP繁体

  81. Default : No

  82. Forced : No

复制代码




此处一般会放置磁力链或电驴下载链接,不过此链接需要注册会员才能看到,点击“立即注册”
磁力链下载【磁力链接仅对注册会员开放,登陆后可见】

TAGS 剧情 历史 战争 灾难

上传的附件:

BT9527.com论坛第一帅,不接受任何反驳
BT9527电影天堂 1、BT9527电影天堂提供的BT文件均来源于互联网抓取,只供网友学习交流、技术提升使用。
2、我们遵守BitTorrent点对点协议原则,任何版权问题请联系原资源发布商,我们不处理任何版权纠纷,谢谢!如有争议请联系邮箱:BT9527#hotmail.com(#换成@)
3、如果您发现某页面或地址有错误,请联系站长邮箱BT9527#hotmail.com(#换成@),我们会尽快处理。您的热心是对BT9527电影天堂最大的支持。
4、本站建议去正规影院观看电影以支持电影行业发展。

最新回复 (0)

你可以在 登录 or 注册 后,对此帖发表评论!

返回